+ ตอบกลับกระทู้
สรุปผลการค้นหา 1 ถึง 3 จากทั้งหมด 3
  1. #1
    Administrators รูปส่วนตัว Duckload.us
    สมัครเมื่อ
    Dec 2010
    โพสต์
    125,109
    Thanks
    7
    Thanked 130,096 Times in 57,692 Posts

    Thumbs up [จีน]-Word of Honor (2021) นักรบพเนจรสุดขอบฟ้า EP1-20-WEB-DL.H.264.1080p. [Master]-[Soundtrack บรรยายไทย]



    โจวจื่อซู หัวหน้าหน่วยเทียนชวงที่เปรียบเสมือนเครื่องจักรสังห ารของฮ่องเต้ เขาเข่นฆ่าผู้คนไปมากมายจนท้ายที่สุดเขาอยากจะใช้ชีว ิตอย่างสันโดษปราศจากการฆ่าล้างชีวิตผู้ใดอีก แต่การถอนตัวออกจากเทียนชวงนั้นมันไม่ง่ายดั่งปรารถน าเพราะเขาต้องยอมรับโทษทัณฑ์แห่งตะปูเจ็ดทวารสามสารท ด้วยมือตนเองและเมื่อพิษร้ายแทรกซึมไปภายในกายมันจะท ำให้เขาเจ็บปวดราวกับถูกทิ่มแทงสามปีให้หลังจักสิ้นช ีพ 3 ปีมันเพียงพอแล้วสำหรับเวลาแห่งความสงบของเขา ต่อมา จื่อซู เร้นกายแท้ของเขาด้วยการแปลงเป็นคนพเนจรมอมแมมซอมซ่อ แต่ดันไม่อาจหลีกหนีสายตาอันเฉียบแหลมของคุณชายเวินไ ปได้ เขาทั้งสองบังเอิญได้พบกันเพราะสาวใช้ของ เวินเคอสิง อย่าง กู้เซียง ไปหาเรื่องหาราวกับคนจรอย่างจื่อซิวแต่เมื่อประมือกั นแล้วคุณชายเวินจึงรู้ได้ทันทีว่าคนจรผู้นี้ไม่ธรรมด า นับแต่นั้นเป็นต้นมาคุณชายเวินจึงเอาแต่เกาะติดนักรบ พเนจร โจวจื่อซู ผู้ใช้นามแฝงว่า โจวซวี่ อยู่ไม่ห่าง

    Format : Matroska
    Format version : Version 4
    File size : 734 MiB
    Duration : 44 min 20 s
    Overall bit rate : 2 313 kb/s
    Encoded date : UTC 2021-02-28 14:50:13
    Writing application : mkvmerge v52.0.0 ('Secret For The Mad') 64-bit
    Writing library : libebml v1.4.1 + libmatroska v1.6.2

    Video
    ID : 1
    Format : AVC
    Format/Info : Advanced Video Codec
    Format profile : [email protected]
    Format settings : CABAC / 3 Ref Frames
    Format settings, CABAC : Yes
    Format settings, Reference frames : 3 frames
    Format settings, GOP : N=1
    Codec ID : V_MPEG4/ISO/AVC
    Duration : 44 min 20 s
    Bit rate : 2 183 kb/s
    Width : 1 920 pixels
    Height : 1 080 pixels
    Display aspect ratio : 16:9
    Frame rate mode : Constant
    Frame rate : 25.000 FPS
    Color space : YUV
    Chroma subsampling : 4:2:0
    Bit depth : 8 bits
    Scan type : Progressive
    Bits/(Pixel*Frame) : 0.042
    Stream size : 692 MiB (94%)
    Default : Yes
    Forced : No
    Color range : Limited
    Color primaries : BT.709
    Transfer characteristics : BT.709
    Matrix coefficients : BT.709

    Audio
    ID : 2
    Format : AAC LC
    Format/Info : Advanced Audio Codec Low Complexity
    Codec ID : A_AAC-2
    Duration : 44 min 20 s
    Bit rate : 128 kb/s
    Channel(s) : 2 channels
    Channel layout : L R
    Sampling rate : 44.1 kHz
    Frame rate : 43.066 FPS (1024 SPF)
    Compression mode : Lossy
    Stream size : 40.6 MiB (6%)
    Default : Yes
    Forced : No

    Text
    ID : 3
    Format : UTF-8
    Codec ID : S_TEXT/UTF8
    Codec ID/Info : UTF-8 Plain Text
    Duration : 43 min 45 s
    Bit rate : 117 b/s
    Count of elements : 465
    Stream size : 37.5 KiB (0%)
    Title : Thai
    Language : Thai
    Default : Yes
    Forced : No





    01 http://www.filecondo.com/dl.php?f=f183ae1LgHjn
    02 http://www.filecondo.com/dl.php?f=V5764d1LgHkl
    03 http://www.filecondo.com/dl.php?f=A84b5a1LgHlj
    04 http://www.filecondo.com/dl.php?f=q6ba271LgHn6
    05 http://www.filecondo.com/dl.php?f=2b69f71Lho8T
    06 http://www.filecondo.com/dl.php?f=hd65d41Lho9Q
    07 http://www.filecondo.com/dl.php?f=xa80561LiUIq
    08 http://www.filecondo.com/dl.php?f=O1ab041LiUJw
    09 http://www.filecondo.com/dl.php?f=X928991Lkysb
    10 http://www.filecondo.com/dl.php?f=scf6161Lkyrg
    11 http://www.filecondo.com/dl.php?f=8258fc1Ll40V
    12 http://www.filecondo.com/dl.php?f=j53a741Ll41T
    13 http://www.filecondo.com/dl.php?f=3842a01LmxYQ
    14 http://www.filecondo.com/dl.php?f=P89da51Lmy07
    15 http://www.filecondo.com/dl.php?f=Q6a0031LoDuj
    16 http://www.filecondo.com/dl.php?f=Eb48421LoDvh
    17 http://www.filecondo.com/dl.php?f=578c011LpmZ2
    18 http://www.filecondo.com/dl.php?f=l82fe01LpmZA
    19 http://www.filecondo.com/dl.php?f=Daeac61Lryw5
    20 http://www.filecondo.com/dl.php?f=n7484c1Lryx3

    Word.Of.Honor.EP01.1080p.WEB-DL.x264.AAC.mkv - 733.7 MB
    Word.Of.Honor.EP02.1080p.WEB-DL.x264.AAC.mkv - 675.5 MB
    Word.Of.Honor.EP03.1080p.WEB-DL.x264.AAC.mkv - 583.8 MB
    Word.Of.Honor.EP04.1080p.WEB-DL.x264.AAC.mkv - 656.4 MB
    Word.Of.Honor.EP05.1080p.WEB-DL.x264.AAC.mkv - 730.5 MB
    Word.Of.Honor.EP06.1080p.WEB-DL.x264.AAC.mkv - 537.2 MB
    Word.Of.Honor.EP07.1080p.WEB-DL.x264.AAC.mkv - 594.1 MB
    Word.Of.Honor.EP08.1080p.WEB-DL.x264.AAC.mkv - 926.2 MB
    Word.Of.Honor.EP010.1080p.WEB-DL.x264.AAC.mkv - 928.0 MB
    Word.Of.Honor.EP09.1080p.WEB-DL.x264.AAC.mkv - 602.8 MB
    Word.Of.Honor.EP11.1080p.WEB-DL.x264.AAC.mkv - 482.6 MB
    Word.Of.Honor.EP12.1080p.WEB-DL.x264.AAC.mkv - 497.7 MB
    Word.Of.Honor.EP13.1080p.WEB-DL.x264.AAC.mkv - 558.6 MB
    Word.Of.Honor.EP14.1080p.WEB-DL.x264.AAC.mkv - 916.6 MB
    Word.Of.Honor.EP15.1080p.WEB-DL.x264.AAC.mkv - 910.7 MB
    Word.Of.Honor.EP16.1080p.WEB-DL.x264.AAC.mkv - 792.4 MB
    Word.Of.Honor.EP17.1080p.WEB-DL.x264.AAC.mkv - 855.7 MB
    Word.Of.Honor.EP18.1080p.WEB-DL.x264.AAC.mkv - 747.1 MB
    Word.Of.Honor.EP19.1080p.WEB-DL.x264.AAC.mkv - 820.9 MB
    Word.Of.Honor.EP20.1080p.WEB-DL.x264.AAC.mkv - 704.4 MB

  2. The Following 4 Users Say Thank You to Duckload.us For This Useful Post:

    aaminz (03-03-2021), mettset (03-02-2021), momotarosu (03-13-2021), Solitarian (03-18-2021)

  3. #2
    Senior Member
    สมัครเมื่อ
    Oct 2013
    โพสต์
    1,908
    Thanks
    0
    Thanked 0 Times in 0 Posts
    ขอบคุณครับ

  4. #3
    Member
    สมัครเมื่อ
    Sep 2013
    โพสต์
    64
    Thanks
    795
    Thanked 0 Times in 0 Posts
    ทำไมตอน 9 กะ 10 โหลดไม่ได้เลยคะ

    แอดช่วยเช็คด้วยค่ะ

+ ตอบกลับกระทู้

ข้อมูลกระทู้

Users Browsing this Thread

ในขณะนี้มี 1 ท่านดูกระทู้อยู่. (0 สมาชิกและ 1 ผู้เยี่ยมชม)

     

กฎการโพสต์ข้อความ

  • ท่าน ไม่สามารถ ตั้งกระทู้ใหม่ได้
  • ท่าน ไม่สามารถ ตอบกระทู้ได้
  • ท่าน ไม่สามารถ แนบไฟล์ได้
  • ท่าน ไม่สามารถ แก้ไขข้อความโพสต์ได้
  • BB code สถานะ เปิด
  • Smilies สถานะ เปิด
  • [IMG] สถานะ เปิด
  • HTML สถานะ ปิด