+ ตอบกลับกระทู้
สรุปผลการค้นหา 1 ถึง 3 จากทั้งหมด 3
  1. #1
    Administrators รูปส่วนตัว Duckload.us
    สมัครเมื่อ
    Dec 2010
    โพสต์
    127,968
    Thanks
    7
    Thanked 132,139 Times in 58,505 Posts

    Lightbulb [จีน]-กรุ่นรักกลิ่นบุปผา ตอนที่ 01-40 จบ เสียง ไทย-จีน บรรยาย ไทย-จีน ภาพชัด 100% MKV 1080 P-HDTV.H.264.1080p. [From TV]-[พากย์ไทย บรรยายไทย]



    ฟู่หรง(นางเอก) เกิดในครอบครัวช่างทองเธอฉลาดและขยันขันแข็งเนื่อง จากการแต่งงานที่โชคร้ายของพี่สาวของเธอ เธอจึงสาบานว่าจะไม่ยอมให้ตัวเองต้องประสบกับความโชค ร้ายแบบเดียวกัน ด้วยความมุ่งมั่นที่จะควบคุมชะตากรรมของเธอเองฟู่หรง จึงหลบหนีจากงานแต่งงานของตัวเอง และมาถึงเมืองหลวงซึ่งเธอได้พบกับซู่สวีจิ้น(พระเอก) โดยบังเอิญ

    Format : Matroska
    Format version : Version 2
    File size : 1.03 GiB
    Duration : 43 min 34 s
    Overall bit rate : 3 381 kb/s
    Encoded date : UTC 2021-02-28 04:39:11
    Writing application : mkvmerge v5.8.0 ('No Sleep / Pillow') built on Sep 2 2012 15:37:04
    Writing library : libebml v1.2.3 + libmatroska v1.3.0

    Video
    ID : 1
    Format : AVC
    Format/Info : Advanced Video Codec
    Format profile : [email protected]
    Format settings : CABAC / 2 Ref Frames
    Format settings, CABAC : Yes
    Format settings, Reference frames : 2 frames
    Format settings, GOP : M=3, N=25
    Muxing mode : Header stripping
    Codec ID : V_MPEG4/ISO/AVC
    Duration : 43 min 34 s
    Bit rate : 2 994 kb/s
    Width : 1 920 pixels
    Height : 1 080 pixels
    Display aspect ratio : 16:9
    Frame rate mode : Constant
    Frame rate : 30.000 FPS
    Color space : YUV
    Chroma subsampling : 4:2:0
    Bit depth : 8 bits
    Scan type : Progressive
    Bits/(Pixel*Frame) : 0.048
    Stream size : 933 MiB (89%)
    Default : Yes
    Forced : No

    Audio #1
    ID : 5
    Format : AC-3
    Format/Info : Audio Coding 3
    Commercial name : Dolby Digital
    Muxing mode : Header stripping
    Codec ID : A_AC3
    Duration : 43 min 34 s
    Bit rate mode : Constant
    Bit rate : 192 kb/s
    Channel(s) : 2 channels
    Channel layout : L R
    Sampling rate : 48.0 kHz
    Frame rate : 31.250 FPS (1536 SPF)
    Compression mode : Lossy
    Delay relative to video : -67 ms
    Stream size : 59.8 MiB (6%)
    Title : AC 3 2.0
    Language : Thai
    Service kind : Complete Main
    Default : Yes
    Forced : No

    Audio #2
    ID : 6
    Format : AC-3
    Format/Info : Audio Coding 3
    Commercial name : Dolby Digital
    Muxing mode : Header stripping
    Codec ID : A_AC3
    Duration : 43 min 34 s
    Bit rate mode : Constant
    Bit rate : 128 kb/s
    Channel(s) : 2 channels
    Channel layout : L R
    Sampling rate : 48.0 kHz
    Frame rate : 31.250 FPS (1536 SPF)
    Compression mode : Lossy
    Delay relative to video : -67 ms
    Stream size : 39.9 MiB (4%)
    Title : AC 3 2.0
    Language : Chinese
    Service kind : Complete Main
    Default : No
    Forced : No

    Text #1
    ID : 2
    Format : UTF-8
    Codec ID : S_TEXT/UTF8
    Codec ID/Info : UTF-8 Plain Text
    Language : Thai
    Default : Yes
    Forced : No

    Text #2
    ID : 3
    Format : UTF-8
    Codec ID : S_TEXT/UTF8
    Codec ID/Info : UTF-8 Plain Text
    Language : Chinese
    Default : No
    Forced : No

    Text #3
    ID : 4
    Format : UTF-8
    Codec ID : S_TEXT/UTF8
    Codec ID/Info : UTF-8 Plain Text
    Language : Chinese
    Default : No
    Forced : No





    01 http://www.filecondo.com/dl.php?f=p77fb11LgJL6
    02 http://www.filecondo.com/dl.php?f=J9eaf71LgJLY
    03 http://www.filecondo.com/dl.php?f=Y7c3f91LgJMM
    04 http://www.filecondo.com/dl.php?f=i3f6901LgJNi
    05 http://www.filecondo.com/dl.php?f=ye77d61LgJOf
    06 http://www.filecondo.com/dl.php?f=s2fef21LgJPd
    07 http://www.filecondo.com/dl.php?f=j9d5e91LgJQb
    08 http://www.filecondo.com/dl.php?f=j943071LgJRK
    09 http://www.filecondo.com/dl.php?f=5cf4891LgJSs
    10 http://www.filecondo.com/dl.php?f=9cdb051LgJT5
    11 http://www.filecondo.com/dl.php?f=R700c81LgJU5
    12 http://www.filecondo.com/dl.php?f=xdceb41LgJVw
    13 http://www.filecondo.com/dl.php?f=895a2c1LgJW2
    14 http://www.filecondo.com/dl.php?f=p060731LgJXt
    15 http://www.filecondo.com/dl.php?f=yd646b1LgJXY
    16 http://www.filecondo.com/dl.php?f=i14efc1LgJZs
    17 http://www.filecondo.com/dl.php?f=Peee641LgJZT
    18 http://www.filecondo.com/dl.php?f=W8acbc1LgK0Q
    19 http://www.filecondo.com/dl.php?f=L642e11LgK1O
    20 http://www.filecondo.com/dl.php?f=V96ed61LgK2M
    21 http://www.filecondo.com/dl.php?f=Pa77ea1LgK3J
    22 http://www.filecondo.com/dl.php?f=U8f7431LgK4I
    23 http://www.filecondo.com/dl.php?f=lc1bb01LgK5H
    24 http://www.filecondo.com/dl.php?f=j1d1ed1LgK6E
    25 http://www.filecondo.com/dl.php?f=Ec58f61LgK7C
    26 http://www.filecondo.com/dl.php?f=i520361LgK8A
    27 http://www.filecondo.com/dl.php?f=z85c821LgK9y
    28 http://www.filecondo.com/dl.php?f=R5aafd1LgKav
    29 http://www.filecondo.com/dl.php?f=u2cdd61LgKbt
    30 http://www.filecondo.com/dl.php?f=l04aa91LgKct
    31 http://www.filecondo.com/dl.php?f=Z070bd1LgKdq
    32 http://www.filecondo.com/dl.php?f=f026891LgKen
    33 http://www.filecondo.com/dl.php?f=n265871LgKfl
    34 http://www.filecondo.com/dl.php?f=135b771LgKgk
    35 http://www.filecondo.com/dl.php?f=Z31c8b1LgKhi
    36 http://www.filecondo.com/dl.php?f=Bf1c2d1LgKif
    37 http://www.filecondo.com/dl.php?f=F996a31LgKje
    38 http://www.filecondo.com/dl.php?f=A0be8b1LgKkz
    39 http://www.filecondo.com/dl.php?f=sd44501LgKli
    40 http://www.filecondo.com/dl.php?f=Rcde941LgKmi

  2. The Following User Says Thank You to Duckload.us For This Useful Post:

    tumzakku (03-18-2021)

  3. #2
    Member
    สมัครเมื่อ
    Nov 2015
    โพสต์
    41
    Thanks
    52
    Thanked 0 Times in 0 Posts
    ขอบคุณครับ

  4. #3
    Senior Member
    สมัครเมื่อ
    Aug 2012
    โพสต์
    269
    Thanks
    0
    Thanked 0 Times in 0 Posts
    ขอบคุณครับ

+ ตอบกลับกระทู้

ข้อมูลกระทู้

Users Browsing this Thread

ในขณะนี้มี 1 ท่านดูกระทู้อยู่. (0 สมาชิกและ 1 ผู้เยี่ยมชม)

     

กฎการโพสต์ข้อความ

  • ท่าน ไม่สามารถ ตั้งกระทู้ใหม่ได้
  • ท่าน ไม่สามารถ ตอบกระทู้ได้
  • ท่าน ไม่สามารถ แนบไฟล์ได้
  • ท่าน ไม่สามารถ แก้ไขข้อความโพสต์ได้
  • BB code สถานะ เปิด
  • Smilies สถานะ เปิด
  • [IMG] สถานะ เปิด
  • HTML สถานะ ปิด