+ ตอบกลับกระทู้
สรุปผลการค้นหา 1 ถึง 2 จากทั้งหมด 2
  1. #1
    Administrators รูปส่วนตัว Duckload.us
    สมัครเมื่อ
    Dec 2010
    โพสต์
    125,109
    Thanks
    7
    Thanked 130,096 Times in 57,692 Posts

    Thumbs up [ฝรั่ง]-Cosmic Sin 2021 คนอึดลุยเอเลี่ยน ! ใหม่ล่าสุด ดูก่อนอเมริกา-ไทย ไฟล์เล็กสเปคสูง ภาพเสียงคมชัด.พากย์อังกฤษ AAC5.1+AC-3-5.1 บรรยายไทยแปล+อังกฤษ 2 แบบ-WEB-DL.H.264.1080p. [Modified]-[Soundtrack บรรยายไทย (google)]



    ประเภท : Mystery And Thriller, Action, Sci Fi
    กำกับการแสดง : Edward Drake
    ดารานำแสดง : Bruce Willis, Frank Grillo, Adelaide Kane, Luke Wilson, C.J. Perry…

    Cosmic Sin มีกำหนดฉายวันที่ 12 มี.ค.ศกนี้ ในโรงภาพยนตร์ที่สหรัฐฯ พร้อมดูทาง Video on Demand

    Bruce Willis ทหารอวกาศรุ่นเก๋า และ Frank Grillo ได้รับมอบหมายให้หยุดสงครามอวกาศ
    สิ่งที่โดดเด่นมากคือการออกแบบชุดเกราะทหารอวกาศ ที่มีกลิ่นอายของเกมแอ็กชันไซไฟคลาสสิก

    ผ่านมาประมาณ 500 ปีหลังจากที่เผ่าพันธุ์มนุษย์เริ่มตั้งรกรากบนดาวอัง คารและดาวเคราะห์นอกระบบอื่น ๆ
    กองกำลังทหารป้องกันตนเองบนดาวเคราะห์ที่ห่างไกลนั้น ถูกโจมตีโดยกองเรือต่างดาวที่ไม่เป็นมิตร

    ในความพยายามที่จะป้องกันไม่ให้เกิดสงครามอวกาศ นายพลทหารเกษียณ เจมส์ฟอร์ด (บรูซ วิลลิส)
    ถูกเรียกกลับเข้าประจำการและได้รับตำแหน่งเดิมกลับคื นมา เพื่อดูว่าจะสามารถสร้างสันติภาพได้หรือไม่
    ซึ่งเขาได้ร่วมเตรียมการรบกับนายพลเอรอนไรล์ (แฟรงก์ กริลโล) และทหารอวกาศยอดฝีมือในสังกัด
    แต่ภัยคุกคามต่อเผ่าพันธุ์มนุษย์ทวีความรุนแรงขึ้น จนอาจจะกลายเป็นสงครามระหว่างดวงดาว......

    ซับไทยแปลจากภาษาอังกฤษโดย google ทำเองกับมือ ไม่มีเวลาปรับแก้ต้นฉบับ ภาษาก็จะดูแปลก ๆ เช่นนั้นเอง

    Format : Matroska
    Format version : Version 4
    File size : 2.06 GiB
    Duration : 1 h 28 min
    Overall bit rate : 3 336 kb/s
    Movie name : Cosmic.Sin.2021.1080p.WEBRip.x264.AAC5.1+AC-3-5.1.P
    Encoded date : UTC 2021-03-02 11:33:00
    Writing application : mkvmerge v54.0.0 ('F Maj Pixie') 64-bit
    Writing library : libebml v1.4.2 + libmatroska v1.6.3
    Cover : Yes
    Attachments : small_cover.jpg / small_cover_land.jpg / cover.jpg / cover_land.jpg

    Video
    ID : 1
    Format : AVC
    Format/Info : Advanced Video Codec
    Format profile : [email protected]
    Format settings : CABAC / 2 Ref Frames
    Format settings, CABAC : Yes
    Format settings, Reference frames : 2 frames
    Codec ID : V_MPEG4/ISO/AVC
    Duration : 1 h 28 min
    Bit rate : 2 565 kb/s
    Width : 1 920 pixels
    Height : 800 pixels
    Display aspect ratio : 2.40:1
    Frame rate mode : Constant
    Frame rate : 23.976 (24000/1001) FPS
    Color space : YUV
    Chroma subsampling : 4:2:0
    Bit depth : 8 bits
    Scan type : Progressive
    Bits/(Pixel*Frame) : 0.070
    Stream size : 1.58 GiB (77%)
    Default : Yes
    Forced : No

    Audio #1
    ID : 2
    Format : AAC LC
    Format/Info : Advanced Audio Codec Low Complexity
    Codec ID : A_AAC-2
    Duration : 1 h 28 min
    Bit rate : 384 kb/s
    Channel(s) : 6 channels
    Channel layout : C L R Ls Rs LFE
    Sampling rate : 48.0 kHz
    Frame rate : 46.875 FPS (1024 SPF)
    Compression mode : Lossy
    Stream size : 243 MiB (12%)
    Title : English AAC 5.1
    Language : English
    Default : No
    Forced : No

    Audio #2
    ID : 3
    Format : AC-3
    Format/Info : Audio Coding 3
    Commercial name : Dolby Digital
    Codec ID : A_AC3
    Duration : 1 h 28 min
    Bit rate mode : Constant
    Bit rate : 384 kb/s
    Channel(s) : 6 channels
    Channel layout : L R C LFE Ls Rs
    Sampling rate : 48.0 kHz
    Frame rate : 31.250 FPS (1536 SPF)
    Compression mode : Lossy
    Stream size : 243 MiB (12%)
    Title : English AC-3-5.1
    Language : English
    Service kind : Complete Main
    Default : Yes
    Forced : No

    Text #1
    ID : 4
    Format : UTF-8
    Codec ID : S_TEXT/UTF8
    Codec ID/Info : UTF-8 Plain Text
    Duration : 1 h 22 min
    Bit rate : 44 b/s
    Count of elements : 961
    Stream size : 27.0 KiB (0%)
    Title : English
    Language : English
    Default : Yes
    Forced : No

    Text #2
    ID : 5
    Format : UTF-8
    Codec ID : S_TEXT/UTF8
    Codec ID/Info : UTF-8 Plain Text
    Duration : 1 h 27 min
    Bit rate : 51 b/s
    Count of elements : 1195
    Stream size : 33.2 KiB (0%)
    Title : English CC
    Language : English
    Default : No
    Forced : No

    Text #3
    ID : 6
    Format : UTF-8
    Codec ID : S_TEXT/UTF8
    Codec ID/Info : UTF-8 Plain Text
    Duration : 1 h 27 min
    Bit rate : 120 b/s
    Count of elements : 1151
    Stream size : 77.3 KiB (0%)
    Title : Thai CC
    Language : Thai
    Default : No
    Forced : No







    Download:cornfile
    http://cornfile.com/dxl1qp1a49pb
    Download:filecondo
    http://www.filecondo.com/dl.php?f=J231f41LhnZG

  2. The Following 3 Users Say Thank You to Duckload.us For This Useful Post:

    amorn wichian (03-04-2021), chaiwatz212521 (03-04-2021), Wesker_TOT (03-04-2021)

  3. #2
    Senior Member
    สมัครเมื่อ
    Dec 2013
    โพสต์
    2,655
    Thanks
    4,575
    Thanked 0 Times in 0 Posts
    ขอบคุณครับ...

+ ตอบกลับกระทู้

ข้อมูลกระทู้

Users Browsing this Thread

ในขณะนี้มี 1 ท่านดูกระทู้อยู่. (0 สมาชิกและ 1 ผู้เยี่ยมชม)

     

กฎการโพสต์ข้อความ

  • ท่าน ไม่สามารถ ตั้งกระทู้ใหม่ได้
  • ท่าน ไม่สามารถ ตอบกระทู้ได้
  • ท่าน ไม่สามารถ แนบไฟล์ได้
  • ท่าน ไม่สามารถ แก้ไขข้อความโพสต์ได้
  • BB code สถานะ เปิด
  • Smilies สถานะ เปิด
  • [IMG] สถานะ เปิด
  • HTML สถานะ ปิด