+ ตอบกลับกระทู้
สรุปผลการค้นหา 1 ถึง 3 จากทั้งหมด 3
  1. #1
    Administrators รูปส่วนตัว Duckload.us
    สมัครเมื่อ
    Dec 2010
    โพสต์
    125,109
    Thanks
    7
    Thanked 130,096 Times in 57,692 Posts

    Thumbs up [ฝรั่ง]-[NETFLIX] Moxie (2021) ม็อกซี่-WEB-DL.EAC-3.1080p. [Modified]-[พากย์อังกฤษ 5.1 ไทย 5.1 บรรยายไทย-อังกฤษ]




    เพื่อนใหม่มาดมั่นและวีรกรรมในอดีตของคุณแม่จอมขบถบั นดาลใจให้สาวขี้อายวัย 16 เผยแพร่หนังสือทำมือโดยไม่ออกนามเพื่อเปิดโปงเรื่องร าวการเหยียดเพศภายในรั้วโรงเรียน

    Format : Matroska
    Format version : Version 4
    File size : 4.87 GiB
    Duration : 1 h 51 min
    Overall bit rate : 6 240 kb/s
    Encoded date : UTC 2021-03-03 13:14:52
    Writing application : mkvmerge v54.0.0 ('F Maj Pixie') 64-bit
    Writing library : libebml v1.4.2 + libmatroska v1.6.3

    Video
    ID : 1
    Format : AVC
    Format/Info : Advanced Video Codec
    Format profile : [email protected]
    Format settings : CABAC / 3 Ref Frames
    Format settings, CABAC : Yes
    Format settings, Reference : 3 frames
    Codec ID : V_MPEG4/ISO/AVC
    Duration : 1 h 51 min
    Bit rate : 4 850 kb/s
    Width : 1 920 pixels
    Height : 960 pixels
    Display aspect ratio : 2.000
    Frame rate mode : Constant
    Frame rate : 24.000 FPS
    Color space : YUV
    Chroma subsampling : 4:2:0
    Bit depth : 8 bits
    Scan type : Progressive
    Bits/(Pixel*Frame) : 0.110
    Stream size : 3.78 GiB (78%)
    Language : English
    Default : Yes
    Forced : No

    Audio #1
    ID : 2
    Format : E-AC-3
    Format/Info : Enhanced AC-3
    Commercial name : Dolby Digital Plus
    Codec ID : A_EAC3
    Duration : 1 h 51 min
    Bit rate mode : Constant
    Bit rate : 640 kb/s
    Channel(s) : 6 channels
    Channel layout : L R C LFE Ls Rs
    Sampling rate : 48.0 kHz
    Frame rate : 31.250 FPS (1536 SPF)
    Compression mode : Lossy
    Stream size : 511 MiB (10%)
    Title : E-AC3 English
    Language : English
    Service kind : Complete Main
    Default : Yes
    Forced : No

    Audio #2
    ID : 3
    Format : E-AC-3
    Format/Info : Enhanced AC-3
    Commercial name : Dolby Digital Plus
    Codec ID : A_EAC3
    Duration : 1 h 51 min
    Bit rate mode : Constant
    Bit rate : 640 kb/s
    Channel(s) : 6 channels
    Channel layout : L R C LFE Ls Rs
    Sampling rate : 48.0 kHz
    Frame rate : 31.250 FPS (1536 SPF)
    Compression mode : Lossy
    Stream size : 511 MiB (10%)
    Title : E-AC3 Thai
    Language : Thai
    Service kind : Complete Main
    Default : No
    Forced : No

    Text #1
    ID : 4
    Format : VobSub
    Muxing mode : zlib
    Codec ID : S_VOBSUB
    Codec ID/Info : Picture based subtitle format used on DVDs
    Duration : 1 h 49 min
    Bit rate : 14.2 kb/s
    Count of elements : 1531
    Stream size : 11.2 MiB (0%)
    Title : Sub Thai 1080p
    Language : Thai
    Default : No
    Forced : No

    Text #2
    ID : 5
    Format : UTF-8
    Codec ID : S_TEXT/UTF8
    Codec ID/Info : UTF-8 Plain Text
    Duration : 1 h 49 min
    Bit rate : 147 b/s
    Count of elements : 1531
    Stream size : 119 KiB (0%)
    Title : Sub Thai SRT
    Language : Thai
    Default : No
    Forced : No

    Text #3
    ID : 6
    Format : PGS
    Muxing mode : zlib
    Codec ID : S_HDMV/PGS
    Codec ID/Info : Picture based subtitle format used on BDs/HD-DVDs
    Duration : 1 h 49 min
    Bit rate : 42.1 kb/s
    Count of elements : 3062
    Stream size : 33.0 MiB (1%)
    Title : Sub Thai PGS
    Language : Thai
    Default : No
    Forced : No

    Text #4
    ID : 7
    Format : PGS
    Muxing mode : zlib
    Codec ID : S_HDMV/PGS
    Codec ID/Info : Picture based subtitle format used on BDs/HD-DVDs
    Duration : 1 h 49 min
    Bit rate : 69.8 kb/s
    Count of elements : 3062
    Stream size : 54.7 MiB (1%)
    Title : Sub Thai PGS NETFLIX
    Language : Thai
    Default : Yes
    Forced : No

    Text #5
    ID : 8
    Format : VobSub
    Muxing mode : zlib
    Codec ID : S_VOBSUB
    Codec ID/Info : Picture based subtitle format used on DVDs
    Duration : 1 h 49 min
    Bit rate : 18.2 kb/s
    Count of elements : 1888
    Stream size : 14.3 MiB (0%)
    Title : Sub English 1080p
    Language : English
    Default : No
    Forced : No

    Text #6
    ID : 9
    Format : UTF-8
    Codec ID : S_TEXT/UTF8
    Codec ID/Info : UTF-8 Plain Text
    Duration : 1 h 49 min
    Bit rate : 84 b/s
    Count of elements : 1888
    Stream size : 68.1 KiB (0%)
    Title : Sub English SRT
    Language : English
    Default : No
    Forced : No

    Text #7
    ID : 10
    Format : PGS
    Muxing mode : zlib
    Codec ID : S_HDMV/PGS
    Codec ID/Info : Picture based subtitle format used on BDs/HD-DVDs
    Duration : 1 h 49 min
    Bit rate : 49.3 kb/s
    Count of elements : 3776
    Stream size : 38.6 MiB (1%)
    Title : Sub English PGS
    Language : English
    Default : No
    Forced : No





    4.87 GB
    Download:cornfile
    http://cornfile.com/pwgk0fg27xrn
    Download:filecondo
    http://www.filecondo.com/dl.php?f=V956821LiFHK

    4.95 GB
    Download:cornfile
    http://cornfile.com/wtvnnedebddq
    Download:filecondo
    http://www.filecondo.com/dl.php?f=eef8a31LiFIJ

  2. The Following 2 Users Say Thank You to Duckload.us For This Useful Post:

    kappa (03-13-2021), sawara (03-16-2021)

  3. #2
    Senior Member
    สมัครเมื่อ
    Jul 2013
    โพสต์
    1,936
    Thanks
    0
    Thanked 0 Times in 0 Posts
    ขอบคุณัครับ

  4. #3
    Senior Member
    สมัครเมื่อ
    Dec 2013
    โพสต์
    410
    Thanks
    340
    Thanked 0 Times in 0 Posts
    ขอบคุณครับ

+ ตอบกลับกระทู้

ข้อมูลกระทู้

Users Browsing this Thread

ในขณะนี้มี 1 ท่านดูกระทู้อยู่. (0 สมาชิกและ 1 ผู้เยี่ยมชม)

     

กฎการโพสต์ข้อความ

  • ท่าน ไม่สามารถ ตั้งกระทู้ใหม่ได้
  • ท่าน ไม่สามารถ ตอบกระทู้ได้
  • ท่าน ไม่สามารถ แนบไฟล์ได้
  • ท่าน ไม่สามารถ แก้ไขข้อความโพสต์ได้
  • BB code สถานะ เปิด
  • Smilies สถานะ เปิด
  • [IMG] สถานะ เปิด
  • HTML สถานะ ปิด