+ ตอบกลับกระทู้
สรุปผลการค้นหา 1 ถึง 2 จากทั้งหมด 2
  1. #1
    Administrators รูปส่วนตัว Duckload.us
    สมัครเมื่อ
    Dec 2010
    โพสต์
    125,109
    Thanks
    7
    Thanked 130,096 Times in 57,692 Posts

    Thumbs up [ญี่ปุ่น]-My Girlfriend is a Serial Killer (2019) Hitsuji to Okami no Koi to Satsujin : เอ๊ะ ผมนี่เหรอศพต่อไป [เสียงญี่ปุ่น] -WEB-DL.H.264.720p. [Modified]-[Soundtrack บรรยายไทย (แปล)]



    Profile
    Movie: My Girlfriend is a Serial Killer (English title) / Love and Murder of Sheep and Wolf (literal title)
    Romaji: Hitsuji to Okami no Koi to Satsujin
    Japanese: 羊 と オ オ カ ミ の 恋 と 殺 人
    Director: Kayoko Asakura
    Writer: Rahson (manga), Izumi Takahashi
    Producer: Ryo Yukizane, Erika Murayama, Hiroaki Saito
    Cinematographer: Shin Hayasaka
    Release Date: November 29, 2019
    Runtime: 103 min.
    Distributor: Presidio
    Language: Japanese
    Country: Japan

    นำแสดงโดย
    Yosuke Sugino
    Haruka Fukuhara
    Manami Enosawa
    Noriko Eguchi

    เรื่องย่อ
    เอสึโระ คุโรซุ (โยซุเกะ ซุกิโนะ) เป็นคนที่ไม่ยอมออกจากบ้าน เขาโดดเดี่ยวไม่มีเพื่อน และมีความทุกข์ทางอารมณ์หลังจากไม่ได้รับการตอบรับเข ้าเรียนในมหาวิทยาลัย เขาพยายามฆ่าตัวตาย แต่ก็ล้มเหลวในตอนนั้น เขาบังเอิญเห็น ริโอะ มิยาอิจิ (ฮารูกะ ฟูกุฮาระ) หญิงสาวข้างบ้าน และเธอก็กระตุ้นจินตนาการของเขา แต่ปัญหาคือเธอเป็นฆาตกรและไม่ใช่นักฆ่ามือสมัครเล่น เขาไม่ติดขัดอะไรกับมัน พวกเขาเริ่มออกเดต แต่ว่าเขาจะปลอดภัยหรือไม่ หรือว่าเธอมีแผนสำหรับเขาหรือเปล่า

    Format : Matroska
    Format version : Version 4
    File size : 906 MiB
    Duration : 1 h 43 min
    Overall bit rate : 1 226 kb/s
    Movie name : Hitsuji.to.Okami.no.Koi.to.Satsujin.2019.WEB-DL.720p.AAC.x264 - [email protected]
    Encoded date : UTC 2021-03-03 14:31:33
    Writing application : mkvmerge v45.0.0 ('Heaven in Pennies') 64-bit
    Writing library : libebml v1.3.10 + libmatroska v1.5.2
    Attachments : Love_and_Murder_of_Sheep_and_Wolf-P1.jpg

    Video
    ID : 1
    Format : AVC
    Format/Info : Advanced Video Codec
    Format profile : [email protected]
    Format settings : 1 Ref Frames
    Format settings, CABAC : No
    Format settings, Reference frames : 1 frame
    Format settings, GOP : M=1, N=60
    Codec ID : V_MPEG4/ISO/AVC
    Duration : 1 h 43 min
    Bit rate : 1 095 kb/s
    Width : 1 280 pixels
    Height : 692 pixels
    Display aspect ratio : 1.85:1
    Frame rate mode : Constant
    Frame rate : 23.976 FPS
    Color space : YUV
    Chroma subsampling : 4:2:0
    Bit depth : 8 bits
    Scan type : Progressive
    Bits/(Pixel*Frame) : 0.052
    Stream size : 810 MiB (89%)
    Writing library : x264 core 155 r2901 7d0ff22
    Language : Japanese
    Default : Yes
    Forced : No
    Color range : Limited
    Color primaries : BT.709
    Transfer characteristics : BT.709
    Matrix coefficients : BT.709

    Audio
    ID : 2
    Format : AAC LC
    Format/Info : Advanced Audio Codec Low Complexity
    Codec ID : A_AAC-2
    Duration : 1 h 43 min
    Bit rate : 128 kb/s
    Channel(s) : 2 channels
    Channel layout : L R
    Sampling rate : 44.1 kHz
    Frame rate : 43.066 FPS (1024 SPF)
    Compression mode : Lossy
    Stream size : 94.6 MiB (10%)
    Language : Japanese
    Default : Yes
    Forced : No





    Download:cornfile
    http://cornfile.com/a2trpjfa1omd
    Download:filecondo
    http://www.filecondo.com/dl.php?f=Qa598b1Li4fA

  2. #2
    Senior Member
    สมัครเมื่อ
    Jul 2013
    โพสต์
    1,936
    Thanks
    0
    Thanked 0 Times in 0 Posts
    ขอบคุณครับ

+ ตอบกลับกระทู้

ข้อมูลกระทู้

Users Browsing this Thread

ในขณะนี้มี 1 ท่านดูกระทู้อยู่. (0 สมาชิกและ 1 ผู้เยี่ยมชม)

     

กฎการโพสต์ข้อความ

  • ท่าน ไม่สามารถ ตั้งกระทู้ใหม่ได้
  • ท่าน ไม่สามารถ ตอบกระทู้ได้
  • ท่าน ไม่สามารถ แนบไฟล์ได้
  • ท่าน ไม่สามารถ แก้ไขข้อความโพสต์ได้
  • BB code สถานะ เปิด
  • Smilies สถานะ เปิด
  • [IMG] สถานะ เปิด
  • HTML สถานะ ปิด