+ ͺѺз
ػšä 1 ֧ 3 ҡ 3
  1. #1
    Administrators ٻǹ Duckload.us
    Ѥ
    Dec 2010
    ʵ
    125,109
    Thanks
    7
    Thanked 130,096 Times in 57,692 Posts

    Thumbs up []-[NETFLIX] Pacific Rim: The Black (2021) ʧ: ״-WEB-DL.EAC-3.1080p. [rip from Master]-[ҡѧ 5.1 5.1 5.1 ѧ-]




    䤨ٷ¨Թ ͧͧͧѺ¹͡Ҿ訹 龺ժԵ оѹԵè


    Format : Matroska
    Format version : Version 4
    File size : 1.27 GiB
    Duration : 28 min 32 s
    Overall bit rate : 6 377 kb/s
    Encoded date : UTC 2021-03-04 14:21:01
    Writing application : mkvmerge v54.0.0 ('F Maj Pixie') 64-bit
    Writing library : libebml v1.4.2 + libmatroska v1.6.3

    Video
    ID : 1
    Format : AVC
    Format/Info : Advanced Video Codec
    Format profile : [email protected]
    Format settings : CABAC / 3 Ref Frames
    Format settings, CABAC : Yes
    Format settings, Reference : 3 frames
    Codec ID : V_MPEG4/ISO/AVC
    Duration : 28 min 32 s
    Bit rate : 4 411 kb/s
    Width : 1 920 pixels
    Height : 960 pixels
    Display aspect ratio : 2.000
    Frame rate mode : Constant
    Frame rate : 23.976 (24000/1001) FPS
    Color space : YUV
    Chroma subsampling : 4:2:0
    Bit depth : 8 bits
    Scan type : Progressive
    Bits/(Pixel*Frame) : 0.100
    Stream size : 900 MiB (69%)
    Language : English
    Default : Yes
    Forced : No

    Audio #1
    ID : 2
    Format : E-AC-3
    Format/Info : Enhanced AC-3
    Commercial name : Dolby Digital Plus
    Codec ID : A_EAC3
    Duration : 28 min 32 s
    Bit rate mode : Constant
    Bit rate : 640 kb/s
    Channel(s) : 6 channels
    Channel layout : L R C LFE Ls Rs
    Sampling rate : 48.0 kHz
    Frame rate : 31.250 FPS (1536 SPF)
    Compression mode : Lossy
    Stream size : 131 MiB (10%)
    Title : E-AC3 English
    Language : English
    Service kind : Complete Main
    Default : Yes
    Forced : No

    Audio #2
    ID : 3
    Format : E-AC-3
    Format/Info : Enhanced AC-3
    Commercial name : Dolby Digital Plus
    Codec ID : A_EAC3
    Duration : 28 min 30 s
    Bit rate mode : Constant
    Bit rate : 640 kb/s
    Channel(s) : 6 channels
    Channel layout : L R C LFE Ls Rs
    Sampling rate : 48.0 kHz
    Frame rate : 31.250 FPS (1536 SPF)
    Compression mode : Lossy
    Stream size : 131 MiB (10%)
    Title : E-AC3 Japanese
    Language : Japanese
    Service kind : Complete Main
    Default : No
    Forced : No

    Audio #3
    ID : 4
    Format : E-AC-3
    Format/Info : Enhanced AC-3
    Commercial name : Dolby Digital Plus
    Codec ID : A_EAC3
    Duration : 28 min 30 s
    Bit rate mode : Constant
    Bit rate : 640 kb/s
    Channel(s) : 6 channels
    Channel layout : L R C LFE Ls Rs
    Sampling rate : 48.0 kHz
    Frame rate : 31.250 FPS (1536 SPF)
    Compression mode : Lossy
    Stream size : 131 MiB (10%)
    Title : E-AC3 Thai
    Language : Thai
    Service kind : Complete Main
    Default : No
    Forced : No

    Text #1
    ID : 5
    Format : VobSub
    Muxing mode : zlib
    Codec ID : S_VOBSUB
    Codec ID/Info : Picture based subtitle format used on DVDs
    Duration : 27 min 24 s
    Bit rate : 11.3 kb/s
    Count of elements : 312
    Stream size : 2.21 MiB (0%)
    Title : Sub Thai 1080p
    Language : Thai
    Default : No
    Forced : No

    Text #2
    ID : 6
    Format : UTF-8
    Codec ID : S_TEXT/UTF8
    Codec ID/Info : UTF-8 Plain Text
    Duration : 27 min 24 s
    Bit rate : 123 b/s
    Count of elements : 312
    Stream size : 24.8 KiB (0%)
    Title : Sub Thai SRT
    Language : Thai
    Default : No
    Forced : No

    Text #3
    ID : 7
    Format : PGS
    Muxing mode : zlib
    Codec ID : S_HDMV/PGS
    Codec ID/Info : Picture based subtitle format used on BDs/HD-DVDs
    Duration : 27 min 24 s
    Bit rate : 33.3 kb/s
    Count of elements : 624
    Stream size : 6.52 MiB (1%)
    Title : Sub Thai PGS
    Language : Thai
    Default : Yes
    Forced : No

    Text #4
    ID : 8
    Format : VobSub
    Muxing mode : zlib
    Codec ID : S_VOBSUB
    Codec ID/Info : Picture based subtitle format used on DVDs
    Duration : 27 min 3 s
    Bit rate : 13.9 kb/s
    Count of elements : 456
    Stream size : 2.69 MiB (0%)
    Title : Sub English 1080p
    Language : English
    Default : No
    Forced : No

    Text #5
    ID : 9
    Format : UTF-8
    Codec ID : S_TEXT/UTF8
    Codec ID/Info : UTF-8 Plain Text
    Duration : 27 min 3 s
    Bit rate : 61 b/s
    Count of elements : 456
    Stream size : 12.1 KiB (0%)
    Title : Sub English SRT
    Language : English
    Default : No
    Forced : No

    Text #6
    ID : 10
    Format : PGS
    Muxing mode : zlib
    Codec ID : S_HDMV/PGS
    Codec ID/Info : Picture based subtitle format used on BDs/HD-DVDs
    Duration : 27 min 3 s
    Bit rate : 38.4 kb/s
    Count of elements : 912
    Stream size : 7.42 MiB (1%)
    Title : Sub English PGS
    Language : English
    Default : No
    Forced : No





    Download:cornfile
    Pacific Rim - The Black (2021) EP.1-From the Shadows.mkv - 1.3 GB
    Pacific Rim - The Black (2021) EP.2-Into the Black.mkv - 966.7 MB
    Pacific Rim - The Black (2021) EP.3-Bogan.mkv - 924.6 MB
    Pacific Rim - The Black (2021) EP.4-Up and Running.mkv - 1.1 GB
    Pacific Rim - The Black (2021) EP.5-Escaping Bogan.mkv - 1.2 GB
    Pacific Rim - The Black (2021) EP.6-Boneyard.mkv - 1.0 GB
    Pacific Rim - The Black (2021) EP.7-Showdown.mkv - 1.2 GB

    Download:filecondo
    1 http://www.filecondo.com/dl.php?f=ea5f661Li52M
    2 http://www.filecondo.com/dl.php?f=x1e1f51Li53m
    3 http://www.filecondo.com/dl.php?f=R4590a1Li52U
    4 http://www.filecondo.com/dl.php?f=4283ae1Li5ld
    5 http://www.filecondo.com/dl.php?f=a8f2441Li5oU
    6 http://www.filecondo.com/dl.php?f=ebd67d1Li5nW
    7 http://www.filecondo.com/dl.php?f=Saaac81Li5ow

  2. The Following User Says Thank You to Duckload.us For This Useful Post:

    Wesker_TOT (03-05-2021)

  3. #2
    Senior Member
    Ѥ
    Dec 2013
    ʵ
    2,655
    Thanks
    4,575
    Thanked 0 Times in 0 Posts
    ͺسѺ...

  4. #3
    Senior Member
    Ѥ
    Jul 2013
    ʵ
    1,936
    Thanks
    0
    Thanked 0 Times in 0 Posts
    ͺسѺ

šз

Users Browsing this Thread

㹢й 1 ҹ١з. (0 Ҫԡ 1 )

     

ʵͤ

  • ҹ ö 駡з
  • ҹ ö ͺз
  • ҹ ö
  • ҹ ö 䢢ͤʵ