+ ตอบกลับกระทู้
สรุปผลการค้นหา 1 ถึง 3 จากทั้งหมด 3
  1. #1
    Administrators รูปส่วนตัว Duckload.us
    สมัครเมื่อ
    Dec 2010
    โพสต์
    126,387
    Thanks
    7
    Thanked 130,974 Times in 58,015 Posts

    Lightbulb [จีน]-[Go Go Squid 2 Dt.Appledogs Time นายเย็นชากับยัยปลาหมึก 2 (นายขี้อายกับยัยแก้มแดง) หูอีเทียน, หลี่อี้ถง, หลี่หมิงเต๋อ, สวี่เล่อเซียว, หวังอันอวี่, ผังฮั่นเฉิน Ep.1-38/End]-WEB-DL.H.264.1080p. [From HD-TV]-[Soundtrack บรรยายไทย]





    ซีรี่ย์จีน: Go Go Squid 2 Dt.Appledog's Time
    ชื่อภาษาไทย: นายเย็นชากับยัยปลาหมึก 2 (นายขี้อายกับยัยแก้มแดง)
    ประเภท: Romance, Comedy, Esports
    นักแสดง: หูอีเทียน, หลี่อี้ถง, หลี่หมิงเต๋อ, สวี่เล่อเซียว, หวังอันอวี่, ผังฮั่นเฉิน, หวังเข่อหรู, หลี่เซี่ยน, หยางจื่อ
    จำนวนตอน: 38
    เขียนบทโดย: Mo Bao Fei Bao, Zhao Xiao Lei
    ผู้กำกับ: Yu Zhong Zhong
    ออกอากาศทางสถานีโทรทัศน์: WeTV, iQiyi
    เริ่มออกอากาศ: 2021-Feb-04
    เวลาออกอากาศ: -
    นักแสดง:
    Hu Yi Tian as Wu Bai (DT)
    Li Yi Tong as Ai Qing (Appledog)
    Team K&K
    Wang An Yu as Shen Zhe (Grunt)
    Li Ming De as Ling Shan (97)
    Xu Le Xiao as Zhou Yi (One)
    Xu Yao as Mi Shaofei (Xiao Mi)
    Li Le
    Li Jia Hao
    Wang Guo Xu
    Feng Ming Xin
    Yue Shuai Yu
    Wang Ming Shuai
    Team SP
    Pang Han Chen as Wang Hao (Solo)
    Liu Shuai as Ou Qiang (All)
    Xu Yang as Zhou Hua (Hua Ti)
    Chai Jun Zhe as Fu Yiwen (Following)
    Huang Xing Yuan as Lin Yin (Inin)
    Wang Guo Hao
    Zhao Can Can
    Other Esport Teams
    Yao Bo Lan as Tao Qitao (Taotao)
    Wang Tao as Esports Commentator Wang Tao
    Zang Quan as Esports Commentator Zang Quan
    Lu Yang as Esports Commentator Zhou Xinxin
    Zhao An Rui as Esports Commentator Zhao Anrui
    Wu Qian Nan as Esports Commentator Nan Nan
    Li Ning Di as Team DT Member
    Yang Cheng Yu as Team DT Member
    Ren Jia Qu as Team AD Member
    Cheng Wei Tao as Team AD Member
    Wang Yu as Team Taotao Member
    Deng Guan Hua as Team Taotao Member
    Others
    Wang Ke Ru as Ai Jing
    Paul Chun as Grandpa Han
    Ji Xiao Fei as Bao Na
    Lu Si Yu as CEO Xiang
    Wu Ya Heng as Lin Shan
    Ariel Ann as Tian Na
    Hu Xia as Singer
    Shi Yu as Father Ai
    Wang Jia Ning as Su Cheng
    Zhang Xiao Qian as Matchmaking Guy
    Huang Hai Bing as Father Wu
    Lin Jing as Mother Wu
    Yang Ping as Mother Shen
    Yuan Yu Han as Xing Zhouzhou
    Li Shi Hao as Naya
    Pei Jia Xin as Luo Hui
    Lu Chen Yue as Fei Yan
    Guo Tong Tong as Boss Jia Yi
    Jiao Hao as Li Xueqian
    Zheng Yi Xin as Luo Hui's mother
    Jing Tian as Theater Play Director
    Peng Shi Teng as Luo Yang
    Liu Kang as Host
    Wang Zi Hao as Xiao Gao
    Han Long Xuan as Optometrist
    Zhu Jian as Father Zhou
    Chen Xu Ming as Grandpa Liu
    Qin Zi Han as Xiao Gang
    Ni Shun Jie as Lin Shan's assistant
    Di Ma as Nan Wei
    Guest appearance
    Yang Zi as Tong Nian
    Li Xian as Han Shang Yan (Gun)
    Sysopsis: อู๋ไป๋ (รับบทโดย หูอี้เทียน) กัปตันทีม K & K ด้วยความสามารถในการแข่งขัน E-Sport จึงทำให้เขานั้นกลายเป็นผู้เล่นดาวรุ่งที่อายุน้อยที ่สุดของการแข่งขัน E-Sport ระดับประเทศ และอู๋ไป๋นั้นมีไอดอลที่ทำให้เขานั้นสนใจในการแข่งขั นก็คืออ้ายฉิง (รับบทโดย หลี่อี้ถง) หัวหน้าทีม SP ซึ่งเป็นเทพเจ้าแห่งการแข่งขัน E-Sport ในระดับตำนาน ซึ่งอู๋ไป๋นั้นชื่นชมในฝีมือของเธอมาก และความชื่นชอบก็เริ่มเปลี่ยนไปเป็นแอบรักเข้า ความรักของพวกเขาทั้งสองจะเป็นอย่างไร และพวกเขาจะสามารถคว้าแชมป์โลกได้หรือไม่ ก็ต้องมารอรับชมกันได้ในซีรี่ย์ Go Go Squid 2 Dt.Appledog's Time นายเย็นชากับยัยปลาหมึก 2 (นายขี้อายกับยัยแก้มแดง)
    Credit: franky

    General
    Unique ID : 150472365017292889664931959156729561143 (0x7133EC6140AB1AEF5165D9EAE309C037)
    Complete name : K:Go Go Squid 2 นายเย็นชากับยัยปลาหมึก 2Go.Go.Squid.2021.S02E19.1080p.WeTV.WEB-DL.AAC.H.264.mkv
    Format : Matroska
    Format version : Version 4
    File size : 641 MiB
    Duration : 45 min 39 s
    Overall bit rate : 1 962 kb/s
    Encoded date : UTC 2021-03-05 16:50:51
    Writing application : mkvmerge v19.0.0 ('Brave Captain') 64-bit
    Writing library : libebml v1.3.5 + libmatroska v1.4.8

    Video
    ID : 1
    Format : AVC
    Format/Info : Advanced Video Codec
    Format profile : [email protected]
    Format settings : CABAC / 4 Ref Frames
    Format settings, CABAC : Yes
    Format settings, Reference fra : 4 frames
    Codec ID : V_MPEG4/ISO/AVC
    Duration : 45 min 39 s
    Bit rate : 1 857 kb/s
    Width : 1 920 pixels
    Height : 1 080 pixels
    Display aspect ratio : 16:9
    Frame rate mode : Constant
    Frame rate : 25.000 FPS
    Color space : YUV
    Chroma subsampling : 4:2:0
    Bit depth : 8 bits
    Scan type : Progressive
    Bits/(Pixel*Frame) : 0.036
    Stream size : 607 MiB (95%)
    Writing library : ptw-1.0.116 rcm-vary vbl-0 vwk
    Default : Yes
    Forced : No
    Color range : Limited
    Color primaries : BT.709
    Transfer characteristics : BT.709
    Matrix coefficients : BT.709

    Audio
    ID : 2
    Format : AAC LC
    Format/Info : Advanced Audio Codec Low Complexity
    Codec ID : A_AAC-2
    Duration : 45 min 39 s
    Bit rate : 93.4 kb/s
    Channel(s) : 2 channels
    Channel layout : L R
    Sampling rate : 48.0 kHz
    Frame rate : 46.875 FPS (1024 SPF)
    Compression mode : Lossy
    Delay relative to video : -42 ms
    Stream size : 30.5 MiB (5%)
    Language : Chinese
    Default : Yes
    Forced : No

    Text #1
    ID : 3
    Format : UTF-8
    Codec ID : S_TEXT/UTF8
    Codec ID/Info : UTF-8 Plain Text
    Duration : 45 min 24 s
    Bit rate : 136 b/s
    Count of elements : 803
    Stream size : 45.6 KiB (0%)
    Language : Thai
    Default : Yes
    Forced : No

    Text #2
    ID : 4
    Format : PGS
    Muxing mode : zlib
    Codec ID : S_HDMV/PGS
    Codec ID/Info : Picture based subtitle format used on BDs/HD-DVDs
    Duration : 45 min 24 s
    Bit rate : 21.6 kb/s
    Count of elements : 1606
    Stream size : 7.02 MiB (1%)
    Language : Thai
    Default : No
    Forced : No



    01 http://www.filecondo.com/dl.php?f=7649521LlMpB
    02 http://www.filecondo.com/dl.php?f=283e9c1LlMqz
    03 http://www.filecondo.com/dl.php?f=65ebac1LlMrJ
    04 http://www.filecondo.com/dl.php?f=Ma81471LlMsy
    05 http://www.filecondo.com/dl.php?f=t44e241LlMvn
    06 http://www.filecondo.com/dl.php?f=de84541LlMFF
    07 http://www.filecondo.com/dl.php?f=h4a4891LlMGD
    08 http://www.filecondo.com/dl.php?f=q207ca1LlMHE
    09 http://www.filecondo.com/dl.php?f=x3c2bb1LlMIM
    10 http://www.filecondo.com/dl.php?f=ef97d81LlMJw
    11 http://www.filecondo.com/dl.php?f=g482541LlMKu
    12 http://www.filecondo.com/dl.php?f=y9d8281LlMLs
    13 http://www.filecondo.com/dl.php?f=t8b34b1LlMMr
    14 http://www.filecondo.com/dl.php?f=V6ffc81LlMNp
    15 http://www.filecondo.com/dl.php?f=Obd2501LlMOH
    16 http://www.filecondo.com/dl.php?f=G8b7541LlMPN
    17 http://www.filecondo.com/dl.php?f=21302f1Lm48w
    18 http://www.filecondo.com/dl.php?f=Pfc70c1LlMRC
    19 http://www.filecondo.com/dl.php?f=Yd4aec1LlMSE
    20 http://www.filecondo.com/dl.php?f=Q8d8ee1LlMTp
    21 http://www.filecondo.com/dl.php?f=75ab171LlMUb
    22 http://www.filecondo.com/dl.php?f=M476611LlMV9
    23 http://www.filecondo.com/dl.php?f=nad35b1LlMW9
    24 http://www.filecondo.com/dl.php?f=8cb2351LlMX7
    25 http://www.filecondo.com/dl.php?f=E584241LlMZ9
    26 http://www.filecondo.com/dl.php?f=0e82441LlN0o
    27 http://www.filecondo.com/dl.php?f=hf1b1f1LlN11
    28 http://www.filecondo.com/dl.php?f=cc38191LlN2c
    29 http://www.filecondo.com/dl.php?f=jb272c1LlN2W
    30 http://www.filecondo.com/dl.php?f=p14ae01LlN3R
    31 http://www.filecondo.com/dl.php?f=t332c81LlN4Q
    32 http://www.filecondo.com/dl.php?f=yf047b1LlN5N
    33 http://www.filecondo.com/dl.php?f=k5e41e1LlN6L
    34 http://www.filecondo.com/dl.php?f=Ufdbbd1LlN7L
    35 http://www.filecondo.com/dl.php?f=e4e4a11LlN9U
    36 http://www.filecondo.com/dl.php?f=Nee5ee1LlNaG
    37 http://www.filecondo.com/dl.php?f=Q50ff71LlNbB
    38 http://www.filecondo.com/dl.php?f=k70f581LlNcA

  2. #2
    Member
    สมัครเมื่อ
    Dec 2011
    โพสต์
    32
    Thanks
    1
    Thanked 0 Times in 0 Posts
    ขอบคุณครับ แต่ตอนที่ 1-5 ลงผิดเรื่องครับ

  3. #3
    Senior Member
    สมัครเมื่อ
    Sep 2012
    โพสต์
    125
    Thanks
    2
    Thanked 0 Times in 0 Posts
    ตอนที่ 1-5 ลงผิดเรื่องยังไม่ได้แก้ไขเลยค่ะ

+ ตอบกลับกระทู้

ข้อมูลกระทู้

Users Browsing this Thread

ในขณะนี้มี 1 ท่านดูกระทู้อยู่. (0 สมาชิกและ 1 ผู้เยี่ยมชม)

     

กฎการโพสต์ข้อความ

  • ท่าน ไม่สามารถ ตั้งกระทู้ใหม่ได้
  • ท่าน ไม่สามารถ ตอบกระทู้ได้
  • ท่าน ไม่สามารถ แนบไฟล์ได้
  • ท่าน ไม่สามารถ แก้ไขข้อความโพสต์ได้
  • BB code สถานะ เปิด
  • Smilies สถานะ เปิด
  • [IMG] สถานะ เปิด
  • HTML สถานะ ปิด