+ ตอบกลับกระทู้
สรุปผลการค้นหา 1 ถึง 9 จากทั้งหมด 9
  1. #1
    Administrators รูปส่วนตัว Duckload.us
    สมัครเมื่อ
    Dec 2010
    โพสต์
    126,656
    Thanks
    7
    Thanked 131,287 Times in 58,134 Posts

    Thumbs up [ฝรั่ง]-The.Falcon.and.the.Winter.Soldier.S01E05.1080p.DSN P.WEBRip.DDP5.1.Atmos.x264-MESSI-WEB-DL.H.264.1080p. [Master]-[Soundtrack บรรยายไทย (GG)]



    Code:
    Format                                   : Matroska
    Format version                           : Version 4
    File size                                : 2.95 GiB
    Duration                                 : 57 min 23 s
    Overall bit rate mode                    : Variable
    Overall bit rate                         : 7 348 kb/s
    Encoded date                             : UTC 2021-04-16 09:00:46
    Writing application                      : mkvmerge v56.1.0 ('My Friend') 64-bit
    Writing library                          : libebml v1.4.2 + libmatroska v1.6.4
    Cover                                    : Yes
    Attachments                              : small_cover.jpg / small_cover_land.jpg / cover.jpg / cover_land.jpg
    
    Video
    ID                                       : 1
    Format                                   : AVC
    Format/Info                              : Advanced Video Codec
    Format profile                           : [email protected]
    Format settings                          : CABAC / 4 Ref Frames
    Format settings, CABAC                   : Yes
    Format settings, Reference frames        : 4 frames
    Codec ID                                 : V_MPEG4/ISO/AVC
    Duration                                 : 57 min 23 s
    Bit rate mode                            : Variable
    Bit rate                                 : 6 576 kb/s
    Maximum bit rate                         : 12.7 Mb/s
    Width                                    : 1 920 pixels
    Height                                   : 1 080 pixels
    Display aspect ratio                     : 16:9
    Frame rate mode                          : Constant
    Frame rate                               : 24.000 FPS
    Color space                              : YUV
    Chroma subsampling                       : 4:2:0
    Bit depth                                : 8 bits
    Scan type                                : Progressive
    Bits/(Pixel*Frame)                       : 0.132
    Stream size                              : 2.64 GiB (89%)
    Default                                  : Yes
    Forced                                   : No
    Color range                              : Limited
    Color primaries                          : BT.709
    Transfer characteristics                 : BT.709
    Matrix coefficients                      : BT.709
    
    Audio
    ID                                       : 2
    Format                                   : E-AC-3 JOC
    Format/Info                              : Enhanced AC-3 with Joint Object Coding
    Commercial name                          : Dolby Digital Plus with Dolby Atmos
    Codec ID                                 : A_EAC3
    Duration                                 : 57 min 23 s
    Bit rate mode                            : Constant
    Bit rate                                 : 768 kb/s
    Channel(s)                               : 6 channels
    Channel layout                           : L R C LFE Ls Rs
    Sampling rate                            : 48.0 kHz
    Frame rate                               : 31.250 FPS (1536 SPF)
    Compression mode                         : Lossy
    Stream size                              : 315 MiB (10%)
    Language                                 : English
    Service kind                             : Complete Main
    Default                                  : No
    Forced                                   : No
    Complexity index                         : 16
    Number of dynamic objects                : 15
    Bed channel count                        : 1 channel
    Bed channel configuration                : LFE
    
    Text #1
    ID                                       : 3
    Format                                   : UTF-8
    Codec ID                                 : S_TEXT/UTF8
    Codec ID/Info                            : UTF-8 Plain Text
    Duration                                 : 54 min 18 s
    Bit rate                                 : 130 b/s
    Count of elements                        : 672
    Stream size                              : 52.0 KiB (0%)
    Language                                 : Thai
    Default                                  : No
    Forced                                   : No
    
    Text #2
    ID                                       : 4
    Format                                   : UTF-8
    Codec ID                                 : S_TEXT/UTF8
    Codec ID/Info                            : UTF-8 Plain Text
    Duration                                 : 54 min 18 s
    Bit rate                                 : 53 b/s
    Count of elements                        : 698
    Stream size                              : 21.5 KiB (0%)
    Title                                    : English [CC]
    Language                                 : English
    Default                                  : Yes
    Forced                                   : No
    
    Text #3
    ID                                       : 5
    Format                                   : UTF-8
    Codec ID                                 : S_TEXT/UTF8
    Codec ID/Info                            : UTF-8 Plain Text
    Duration                                 : 57 min 15 s
    Bit rate                                 : 42 b/s
    Count of elements                        : 412
    Stream size                              : 17.7 KiB (0%)
    Title                                    : Dansk
    Language                                 : Danish
    Default                                  : No
    Forced                                   : No
    
    Text #4
    ID                                       : 6
    Format                                   : UTF-8
    Codec ID                                 : S_TEXT/UTF8
    Codec ID/Info                            : UTF-8 Plain Text
    Duration                                 : 57 min 15 s
    Bit rate                                 : 43 b/s
    Count of elements                        : 565
    Stream size                              : 18.4 KiB (0%)
    Title                                    : Deutsch
    Language                                 : German
    Default                                  : No
    Forced                                   : No
    
    Text #5
    ID                                       : 7
    Format                                   : UTF-8
    Codec ID                                 : S_TEXT/UTF8
    Codec ID/Info                            : UTF-8 Plain Text
    Duration                                 : 57 min 15 s
    Bit rate                                 : 45 b/s
    Count of elements                        : 620
    Stream size                              : 19.0 KiB (0%)
    Title                                    : Españ ol
    Language                                 : Spanish
    Default                                  : No
    Forced                                   : No
    
    Text #6
    ID                                       : 8
    Format                                   : UTF-8
    Codec ID                                 : S_TEXT/UTF8
    Codec ID/Info                            : UTF-8 Plain Text
    Duration                                 : 57 min 15 s
    Bit rate                                 : 45 b/s
    Count of elements                        : 624
    Stream size                              : 18.9 KiB (0%)
    Title                                    : Españ ol (Latinoamericano)
    Language                                 : Spanish
    Default                                  : No
    Forced                                   : No
    
    Text #7
    ID                                       : 9
    Format                                   : UTF-8
    Codec ID                                 : S_TEXT/UTF8
    Codec ID/Info                            : UTF-8 Plain Text
    Duration                                 : 57 min 15 s
    Bit rate                                 : 42 b/s
    Count of elements                        : 582
    Stream size                              : 17.7 KiB (0%)
    Title                                    : Franç ais
    Language                                 : French
    Default                                  : No
    Forced                                   : No
    
    Text #8
    ID                                       : 10
    Format                                   : UTF-8
    Codec ID                                 : S_TEXT/UTF8
    Codec ID/Info                            : UTF-8 Plain Text
    Duration                                 : 54 min 10 s
    Bit rate                                 : 44 b/s
    Count of elements                        : 587
    Stream size                              : 17.7 KiB (0%)
    Title                                    : Franç ais (Canadien)
    Language                                 : French
    Default                                  : No
    Forced                                   : No
    
    Text #9
    ID                                       : 11
    Format                                   : UTF-8
    Codec ID                                 : S_TEXT/UTF8
    Codec ID/Info                            : UTF-8 Plain Text
    Duration                                 : 57 min 15 s
    Bit rate                                 : 42 b/s
    Count of elements                        : 619
    Stream size                              : 17.8 KiB (0%)
    Title                                    : Italiano
    Language                                 : Italian
    Default                                  : No
    Forced                                   : No
    
    Text #10
    ID                                       : 12
    Format                                   : UTF-8
    Codec ID                                 : S_TEXT/UTF8
    Codec ID/Info                            : UTF-8 Plain Text
    Duration                                 : 57 min 15 s
    Bit rate                                 : 45 b/s
    Count of elements                        : 502
    Stream size                              : 19.0 KiB (0%)
    Title                                    : Nederlands
    Language                                 : Dutch
    Default                                  : No
    Forced                                   : No
    
    Text #11
    ID                                       : 13
    Format                                   : UTF-8
    Codec ID                                 : S_TEXT/UTF8
    Codec ID/Info                            : UTF-8 Plain Text
    Duration                                 : 57 min 15 s
    Bit rate                                 : 39 b/s
    Count of elements                        : 620
    Stream size                              : 16.8 KiB (0%)
    Title                                    : Norsk
    Language                                 : Norwegian
    Default                                  : No
    Forced                                   : No
    
    Text #12
    ID                                       : 14
    Format                                   : UTF-8
    Codec ID                                 : S_TEXT/UTF8
    Codec ID/Info                            : UTF-8 Plain Text
    Duration                                 : 57 min 15 s
    Bit rate                                 : 43 b/s
    Count of elements                        : 615
    Stream size                              : 18.4 KiB (0%)
    Title                                    : Portuguê s
    Language                                 : Portuguese
    Default                                  : No
    Forced                                   : No
    
    Text #13
    ID                                       : 15
    Format                                   : UTF-8
    Codec ID                                 : S_TEXT/UTF8
    Codec ID/Info                            : UTF-8 Plain Text
    Duration                                 : 57 min 15 s
    Bit rate                                 : 45 b/s
    Count of elements                        : 623
    Stream size                              : 19.2 KiB (0%)
    Title                                    : Portuguê s (Brasil)
    Language                                 : Portuguese
    Default                                  : No
    Forced                                   : No
    
    Text #14
    ID                                       : 16
    Format                                   : UTF-8
    Codec ID                                 : S_TEXT/UTF8
    Codec ID/Info                            : UTF-8 Plain Text
    Duration                                 : 57 min 15 s
    Bit rate                                 : 38 b/s
    Count of elements                        : 620
    Stream size                              : 16.2 KiB (0%)
    Title                                    : Suomi
    Language                                 : Finnish
    Default                                  : No
    Forced                                   : No
    
    Text #15
    ID                                       : 17
    Format                                   : UTF-8
    Codec ID                                 : S_TEXT/UTF8
    Codec ID/Info                            : UTF-8 Plain Text
    Duration                                 : 57 min 15 s
    Bit rate                                 : 45 b/s
    Count of elements                        : 506
    Stream size                              : 19.0 KiB (0%)
    Title                                    : Svenska
    Language                                 : Swedish
    Default                                  : No
    Forced                                   : No


    EP 5 GG
    Download:cornfile
    http://cornfile.com/oi1nj2ofe3w9
    Download:filecondo
    http://www.filecondo.com/dl.php?f=3053071LxmH6

  2. The Following 4 Users Say Thank You to Duckload.us For This Useful Post:

    agg001 (03-23-2021), amorn wichian (04-16-2021), jackjangri (03-22-2021), neorun (03-26-2021)

  3. #2
    Senior Member
    สมัครเมื่อ
    Oct 2013
    โพสต์
    1,924
    Thanks
    0
    Thanked 0 Times in 0 Posts
    ขอบคุณครับ

  4. #3
    Senior Member
    สมัครเมื่อ
    Jul 2013
    โพสต์
    2,141
    Thanks
    0
    Thanked 0 Times in 0 Posts
    ขอบคุณครับ

  5. #4
    Junior Member
    สมัครเมื่อ
    Sep 2012
    โพสต์
    26
    Thanks
    0
    Thanked 0 Times in 0 Posts

    โหลดไม่ได้ครับ

    confile โหลดอะไรไม่ได้เลยครับเพิ่งเติมไปเองจะแก้ไขยังไงครั บ

  6. #5
    Member
    สมัครเมื่อ
    Feb 2017
    โพสต์
    45
    Thanks
    0
    Thanked 0 Times in 0 Posts
    cronfile ไม่มีซับไทยนะครับ

  7. #6
    Junior Member
    สมัครเมื่อ
    Aug 2019
    โพสต์
    9
    Thanks
    0
    Thanked 0 Times in 0 Posts
    cornfile โหลดบ่ได้คือกันคับ

  8. #7
    Junior Member
    สมัครเมื่อ
    May 2019
    โพสต์
    6
    Thanks
    4
    Thanked 0 Times in 0 Posts
    แก้ไขไฟล์ซับให้หน่อยครับ มันโหลดไม่ได้ครับ

  9. #8
    Administrators รูปส่วนตัว Duckload.us
    สมัครเมื่อ
    Dec 2010
    โพสต์
    126,656
    Thanks
    7
    Thanked 131,287 Times in 58,134 Posts
    01E05.1080p.DSN

  10. #9
    Senior Member
    สมัครเมื่อ
    Jan 2011
    โพสต์
    784
    Thanks
    1,068
    Thanked 0 Times in 0 Posts
    ขอบคุณครับ

+ ตอบกลับกระทู้

ข้อมูลกระทู้

Users Browsing this Thread

ในขณะนี้มี 1 ท่านดูกระทู้อยู่. (0 สมาชิกและ 1 ผู้เยี่ยมชม)

     

กฎการโพสต์ข้อความ

  • ท่าน ไม่สามารถ ตั้งกระทู้ใหม่ได้
  • ท่าน ไม่สามารถ ตอบกระทู้ได้
  • ท่าน ไม่สามารถ แนบไฟล์ได้
  • ท่าน ไม่สามารถ แก้ไขข้อความโพสต์ได้
  • BB code สถานะ เปิด
  • Smilies สถานะ เปิด
  • [IMG] สถานะ เปิด
  • HTML สถานะ ปิด