+ ตอบกลับกระทู้
สรุปผลการค้นหา 1 ถึง 3 จากทั้งหมด 3
  1. #1
    Administrators รูปส่วนตัว Duckload.us
    สมัครเมื่อ
    Dec 2010
    โพสต์
    125,253
    Thanks
    7
    Thanked 130,238 Times in 57,734 Posts

    Thumbs up มหาวิบัติเอเลี่ยนถล่มโลก2 : Attraction 2 Invasion 2020 1080p BDRip X264 EN TH [พากย์:ไทยโรง- อังกฤษ][SUB:อังกฤษ]


    เรื่องย่อ Attraction 2 Invasion (2020) มหาวิบัติเอเลี่ยนล้างโลก
    จะเกิดอะไรขึ้นถ้า 'น้ำ' ที่คิดเป็นสัดส่วน 80 เปอร์เซ็นต์ของโลกมนุษย์ กลับถูกเอเลี่ยนใช้เป็นอาวุธ! เหล่ามวลมนุษยชาติจะรอดจากการโจมตีในครั้งนี้หรือไม่ !! สามปีให้หลัง หลังจากที่โลกมนุษย์ถูกโจมตีจากนอกโลกเป็นครั้งแรก แม้เหล่ามวลมนุษยชาติจะสามารถเอาชนะศึกในครั้งนั้น และค่อย ๆ กลับมาดำเนินชีวิตตามปกติ แต่ทว่าความสงบสุขกำลังจะหายไป เมื่อเหล่าเอเลี่ยนยกทัพมาบุกเพื่อทำลายล้างเผ่าพันธ ุ์อีกครั้ง และที่ใดมีน้ำไหลผ่าน ที่นั่นจะไม่ปลอดภัยอีกต่อไป! ศึก 'มหาวิบัติเอเลี่ยนล้างโลก' จึงเปิดฉากขึ้นอีกครั้ง!!

    ************************************************** ****

    General
    Unique ID : 40494861670080771694490258936851855599 (0x1E7706D3BDE388B518E5C42BD7FBF8EF)
    Complete name : D:\Attraction.2.Invasion.2020.1080p.BDRip.X264.EN. TH.kiatplk.mkv
    Format : Matroska
    Format version : Version 4 / Version 2
    File size : 4.66 GiB
    Duration : 2 h 13 min
    Overall bit rate : 5 000 kb/s
    Movie name : Attraction.2.Invasion.2020.1080p.BDRip.X264.EN.TH. kiatplk
    Encoded date : UTC 2021-04-05 00:02:19
    Writing application : mkvmerge v50.0.0 ('Awakenings') 64-bit
    Writing library : libebml v1.4.0 + libmatroska v1.6.2

    Video
    ID : 2
    Format : AVC
    Format/Info : Advanced Video Codec
    Format profile : [email protected]
    Format settings, CABAC : Yes
    Format settings, RefFrames : 5 frames
    Codec ID : V_MPEG4/ISO/AVC
    Duration : 2 h 13 min
    Bit rate : 4 517 kb/s
    Width : 1 920 pixels
    Height : 708 pixels
    Display aspect ratio : 2.712
    Frame rate mode : Constant
    Frame rate : 23.976 (24000/1001) FPS
    Color space : YUV
    Chroma subsampling : 4:2:0
    Bit depth : 8 bits
    Scan type : Progressive
    Bits/(Pixel*Frame) : 0.139
    Stream size : 4.21 GiB (90%)
    Language : English
    Default : Yes
    Forced : No
    Color range : Limited
    Color primaries : BT.709
    Transfer characteristics : BT.709
    Matrix coefficients : BT.709

    Audio #1
    ID : 1
    Format : AC-3
    Format/Info : Audio Coding 3
    Format settings, Endianness : Big
    Codec ID : A_AC3
    Duration : 2 h 13 min
    Bit rate mode : Constant
    Bit rate : 384 kb/s
    Channel(s) : 6 channels
    Channel positions : Front: L C R, Side: L R, LFE
    Sampling rate : 48.0 kHz
    Frame rate : 31.250 FPS (1536 SPF)
    Bit depth : 16 bits
    Compression mode : Lossy
    Delay relative to video : -42 ms
    Stream size : 367 MiB (8%)
    Language : English
    Service kind : Complete Main
    Default : No
    Forced : No

    Audio #2
    ID : 4
    Format : AAC
    Format/Info : Advanced Audio Codec
    Format profile : LC
    Codec ID : A_AAC
    Duration : 2 h 13 min
    Bit rate : 96.0 kb/s
    Channel(s) : 2 channels
    Channel positions : Front: L R
    Sampling rate : 48.0 kHz
    Frame rate : 46.875 FPS (1024 SPF)
    Compression mode : Lossy
    Delay relative to video : -42 ms
    Stream size : 91.3 MiB (2%)
    Language : Thai
    Default : Yes
    Forced : No

    Text
    ID : 3
    Format : UTF-8
    Codec ID : S_TEXT/UTF8
    Codec ID/Info : UTF-8 Plain Text
    Duration : 2 h 4 min
    Bit rate : 73 b/s
    Count of elements : 1740
    Stream size : 66.9 KiB (0%)
    Language : English
    Default : Yes
    Forced : NO





    Download:cornfile
    http://cornfile.com/z5eu1ly6u7zh
    Download:filecondo
    http://www.filecondo.com/dl.php?f=c43e111Ltm7i

  2. The Following 2 Users Say Thank You to Duckload.us For This Useful Post:

    aalif123 (04-05-2021), masaomi (04-07-2021)

  3. #2
    Junior Member
    สมัครเมื่อ
    Mar 2012
    โพสต์
    7
    Thanks
    4
    Thanked 0 Times in 0 Posts
    ขอบคุณครับ

  4. #3
    Senior Member
    สมัครเมื่อ
    Oct 2013
    โพสต์
    1,910
    Thanks
    0
    Thanked 0 Times in 0 Posts
    ขอบคุณครับ

+ ตอบกลับกระทู้

ข้อมูลกระทู้

Users Browsing this Thread

ในขณะนี้มี 1 ท่านดูกระทู้อยู่. (0 สมาชิกและ 1 ผู้เยี่ยมชม)

     

กฎการโพสต์ข้อความ

  • ท่าน ไม่สามารถ ตั้งกระทู้ใหม่ได้
  • ท่าน ไม่สามารถ ตอบกระทู้ได้
  • ท่าน ไม่สามารถ แนบไฟล์ได้
  • ท่าน ไม่สามารถ แก้ไขข้อความโพสต์ได้
  • BB code สถานะ เปิด
  • Smilies สถานะ เปิด
  • [IMG] สถานะ เปิด
  • HTML สถานะ ปิด