Skyline หรือชื่อไทย สงครามสกายไลน์ดูดโลก ภาค 3 ที่จะมาในชื่อ SkylinES โดยในภาค 3 นี้จะเป็นการกลับมาของนักแสดงสาว Lindsey Morgan ที่เคยฝากผลงานมาแล้วใน The 100 โดยเธอจะกลับมารับบท Rose Corley และในครั้งนี้จะมีเหล่านักแสดงสมทบหน้าใหม่มาร่วมด้ว ยไม่ว่าจะเป็น Jonathan Howard (“Godzilla: King of Monsters”), Alexander Siddig (“Game of Thrones”), Rhona Mitra (“Underworld: Rise of the Lycans”), Daniel Bernhardt (“John Wick”) และ James Cosmo (“Chernobyl”).ใน Skylin3s เนื่องจากไวรัสกำลังคุกคามและฆ่าล้างบางคนทั้งโลก ลูกครึ่งผู้มีพลังเหนือมนุษย์อย่าง Rose Corley จึงต้องนำทีมเหล่าทหารชั้นยอดเข้าทำภารกิจกำจัดเหล่า เอเลี่ยนที่รุกรานโลกเพื่อปกป้องเหล่ามนุษยชาติที่ยั งหลงเหลืออยู่

************************************************** *********

General
Unique ID : 223486021091152173503764692028865772749 (0xA821D78E6F721E05AFDF4FEFEEB9FCCD)
Complete name : D:\Skylines.2020.1080p.AMZN.WEBRip.DDP5.1.x264.EN. THR.kiatplk.mkv
Format : Matroska
Format version : Version 4 / Version 2
File size : 5.89 GiB
Duration : 1 h 53 min
Overall bit rate : 7 446 kb/s
Movie name : Skylines.2020.1080p.AMZN.WEBRip.DDP5.1.x264.EN.THR .kiatplk
Encoded date : UTC 2021-04-04 22:25:50
Writing application : mkvmerge v50.0.0 ('Awakenings') 64-bit
Writing library : libebml v1.4.0 + libmatroska v1.6.2

Video
ID : 1
Format : AVC
Format/Info : Advanced Video Codec
Format profile : [email protected]
Format settings, CABAC : Yes
Format settings, RefFrames : 4 frames
Codec ID : V_MPEG4/ISO/AVC
Duration : 1 h 53 min
Bit rate mode : Constant
Bit rate : 6 664 kb/s
Nominal bit rate : 10 000 kb/s
Width : 1 920 pixels
Height : 800 pixels
Display aspect ratio : 2.40:1
Frame rate mode : Constant
Frame rate : 23.976 (24000/1001) FPS
Color space : YUV
Chroma subsampling : 4:2:0
Bit depth : 8 bits
Scan type : Progressive
Bits/(Pixel*Frame) : 0.181
Stream size : 5.27 GiB (89%)
Default : Yes
Forced : No
Color range : Limited
Color primaries : BT.709
Transfer characteristics : BT.709
Matrix coefficients : BT.709

Audio #1
ID : 2
Format : E-AC-3
Format/Info : Enhanced Audio Coding 3
Format settings, Endianness : Big
Codec ID : A_EAC3
Duration : 1 h 53 min
Bit rate mode : Constant
Bit rate : 640 kb/s
Channel(s) : 6 channels
Channel positions : Front: L C R, Side: L R, LFE
Sampling rate : 48.0 kHz
Frame rate : 187.500 FPS (256 SPF)
Compression mode : Lossy
Stream size : 519 MiB (9%)
Language : English
Service kind : Complete Main
Default : Yes
Forced : No

Audio #2
ID : 4
Format : AAC
Format/Info : Advanced Audio Codec
Format profile : LC
Codec ID : A_AAC
Duration : 1 h 53 min
Bit rate : 140 kb/s
Channel(s) : 2 channels
Channel positions : Front: L R
Sampling rate : 48.0 kHz
Frame rate : 46.875 FPS (1024 SPF)
Compression mode : Lossy
Stream size : 113 MiB (2%)
Title : THR
Default : No
Forced : No

Text
ID : 3
Format : UTF-8
Codec ID : S_TEXT/UTF8
Codec ID/Info : UTF-8 Plain Text
Duration : 1 h 44 min
Bit rate : 46 b/s
Count of elements : 1271
Stream size : 35.4 KiB (0%)
Title : SDH
Language : English
Default : No
Forced : No





Download:cornfile
http://cornfile.com/kqjxth995c2j
Download:filecondo
fc อัพไม่ได้ครับหนังค่าย M