+ ตอบกลับกระทู้
สรุปผลการค้นหา 1 ถึง 4 จากทั้งหมด 4
  1. #1
    Administrators รูปส่วนตัว Duckload.us
    สมัครเมื่อ
    Dec 2010
    โพสต์
    125,218
    Thanks
    7
    Thanked 130,233 Times in 57,734 Posts

    Thumbs up [ฝรั่ง]-ซอมบี้สุริยะ: Solar.Impact.the.Destruction.of.London.2019.1080p. AMZN.WEBRip.DDP2.0.x264.EN.TH[เสียง.ไทย-อังกฤษ][บรรยาย.อังกฤษ]-Blu-ray.AC-3.1080i. [Modified]-[พากย์ไทย]


    ชื่อภาพยนตร์ : Solar Impact (2019) ซอมบี้สุริยะ

    แนว/ประเภท : Horror, Sci-Fi

    ผู้กำกับภาพยนตร์ : Craig Tudor

    ผู้เขียนบทภาพยนตร์ : Simon Park

    นักแสดง : Grace Dixon, Dan Donnelly, Oliver Goodwill, Polly Kilpatrick, Peter Knight

    เรื่องย่อ : เศษซากสุริยะตกลงมายังโลกทำให้เกิดการทำลายล้างอย่าง กว้างขวางและปล่อยรังสีดวงอาทิตย์ไปทั่วโลก เมื่อการกลายพันธุ์ทางพันธุกรรมแพร่กระจายไปอย่างรวด เร็วกลุ่มเพื่อนจึงต้องต่อสู้เพื่อเอาชีวิตรอดและหลี กหนีจากความวุ่นวาย

    ประเทศ: อเมริกา

    วันเปิดตัว: November 15, 2019

    ความยาว: 1 ชั่วโมง 26 นาที

    ผู้กำกับ: Craig Tudor

    นักแสดง: Grace Dixon, Dan Donnelly, Oliver Goodwill, Polly Kilpatrick, Peter Knight


    ************************************************** ***********************************

    General
    Unique ID : 73189234922230417084610608890435062957 (0x370FBBE1CF9A005032A556BA4083CCAD)
    Complete name : D:Solar.Impact.the.Destruction.of.London.2019.1080 p.AMZN.WEBRip.DDP2.0.x264.EN.TH.kiatplk.mkv
    Format : Matroska
    Format version : Version 4 / Version 2
    File size : 4.33 GiB
    Duration : 1 h 26 min
    Overall bit rate : 7 174 kb/s
    Movie name : Solar.Impact.the.Destruction.of.London.2019.1080p. AMZN.WEBRip.DDP2.0.x264.EN.TH.kiatplk
    Encoded date : UTC 2021-04-05 22:44:54
    Writing application : mkvmerge v50.0.0 ('Awakenings') 64-bit
    Writing library : libebml v1.4.0 + libmatroska v1.6.2

    Video
    ID : 1
    Format : AVC
    Format/Info : Advanced Video Codec
    Format profile : [email protected]
    Format settings, CABAC : Yes
    Format settings, RefFrames : 4 frames
    Codec ID : V_MPEG4/ISO/AVC
    Duration : 1 h 26 min
    Bit rate mode : Constant
    Bit rate : 6 808 kb/s
    Nominal bit rate : 10 000 kb/s
    Width : 1 920 pixels
    Height : 1 080 pixels
    Display aspect ratio : 16:9
    Frame rate mode : Constant
    Frame rate : 23.976 (24000/1001) FPS
    Color space : YUV
    Chroma subsampling : 4:2:0
    Bit depth : 8 bits
    Scan type : Progressive
    Bits/(Pixel*Frame) : 0.137
    Stream size : 4.11 GiB (95%)
    Default : Yes
    Forced : No
    Color range : Limited
    Color primaries : BT.709
    Transfer characteristics : BT.709
    Matrix coefficients : BT.709

    Audio #1
    ID : 2
    Format : E-AC-3
    Format/Info : Enhanced Audio Coding 3
    Format settings, Endianness : Big
    Codec ID : A_EAC3
    Duration : 1 h 26 min
    Bit rate mode : Constant
    Bit rate : 224 kb/s
    Channel(s) : 2 channels
    Channel positions : Front: L R
    Sampling rate : 48.0 kHz
    Frame rate : 187.500 FPS (256 SPF)
    Compression mode : Lossy
    Stream size : 139 MiB (3%)
    Language : English
    Service kind : Complete Main
    Default : Yes
    Forced : No

    Audio #2
    ID : 4
    Format : AAC
    Format/Info : Advanced Audio Codec
    Format profile : LC
    Codec ID : A_AAC
    Duration : 1 h 26 min
    Bit rate : 140 kb/s
    Channel(s) : 2 channels
    Channel positions : Front: L R
    Sampling rate : 48.0 kHz
    Frame rate : 46.875 FPS (1024 SPF)
    Compression mode : Lossy
    Stream size : 86.4 MiB (2%)
    Language : Thai
    Default : No
    Forced : No

    Text
    ID : 3
    Format : UTF-8
    Codec ID : S_TEXT/UTF8
    Codec ID/Info : UTF-8 Plain Text
    Duration : 1 h 21 min
    Bit rate : 33 b/s
    Count of elements : 896
    Stream size : 20.0 KiB (0%)
    Title : English (SDH)
    Language : English
    Default : No
    Forced : No





    Download:cornfile
    http://cornfile.com/5ogeqvwxrmjl
    Download:filecondo
    http://www.filecondo.com/dl.php?f=k5e2101LtFsu

  2. The Following 3 Users Say Thank You to Duckload.us For This Useful Post:

    noi54 (04-08-2021), santiphap_red (04-09-2021), Wesker_TOT (04-08-2021)

  3. #2
    Senior Member
    สมัครเมื่อ
    Jul 2013
    โพสต์
    1,962
    Thanks
    0
    Thanked 0 Times in 0 Posts
    ขอบคุณครับ

  4. #3
    Senior Member
    สมัครเมื่อ
    Dec 2011
    โพสต์
    2,485
    Thanks
    58
    Thanked 0 Times in 0 Posts
    Thank you ka

  5. #4
    Senior Member
    สมัครเมื่อ
    Dec 2013
    โพสต์
    2,661
    Thanks
    4,581
    Thanked 0 Times in 0 Posts
    ขอบคุณนะครับ...

+ ตอบกลับกระทู้

ข้อมูลกระทู้

Users Browsing this Thread

ในขณะนี้มี 1 ท่านดูกระทู้อยู่. (0 สมาชิกและ 1 ผู้เยี่ยมชม)

     

กฎการโพสต์ข้อความ

  • ท่าน ไม่สามารถ ตั้งกระทู้ใหม่ได้
  • ท่าน ไม่สามารถ ตอบกระทู้ได้
  • ท่าน ไม่สามารถ แนบไฟล์ได้
  • ท่าน ไม่สามารถ แก้ไขข้อความโพสต์ได้
  • BB code สถานะ เปิด
  • Smilies สถานะ เปิด
  • [IMG] สถานะ เปิด
  • HTML สถานะ ปิด