เรื่องย่อ. ในโลกอนาคตปี 2024 เมื่อ ไวรัสโควิด 23 ระบาดร้ายแรงเริ่มกลายพันธุ์ และคร่าชีวิตผู้คนไปมากกว่า 110 ล้านรายทั่วโลก! เพื่อป้องกันการแพร่เชื้อทั้งโลกจึงต้องอยู่ในภาวะล็ อคดาวน์ มีการประกาศเคอร์ฟิว และพลเมืองที่ไม่ได้รับอนุญาตต้องอยู่แต่ในอาคาร ใครฝ่าฝืนจะถูกรัฐบาลใช้มาตราการรุนแรงปราบปราม แต่แล้วหายนะก็บังเกิดกับ นิโก (เคเจ อาปา) ชายหนุ่มผู้มีภูมิคุ้มกัน เมื่อ ซาร่า (โซเฟีย คาร์สัน) แฟนสาวของเขาที่ไม่เคยมีโอกาสเจอกันอีกเลยนับตั้งแต่ เกิดเหตุไวรัสระบาด กำลังจะถูกเจ้าหน้าที่บุกมาถึงที่พักภายในไม่กี่ชั่ว โมงหลังถูกต้องสงสัยว่าติดเชื้อ นิโก จึงต้องรีบเดินทางฝ่ามฤตยูไวรัสล้างโลกนี้ พร้อมทำทุกวิถีทางเพื่อช่วย ซาร่า ให้ได้ก่อนที่ทุกอย่างจะสายเกินไป

************************************************** ********************************************
General
Unique ID : 329458445647146986876189659829830840883 (0xF7DB637AA7976B37DD9D1E91E9AA7233)
Complete name : D:Songbird.2020.1080p.AMZN.WEBRip.DDP5.1.x264.EN.T HR.kiatplk.mkv
Format : Matroska
Format version : Version 4 / Version 2
File size : 5.86 GiB
Duration : 1 h 24 min
Overall bit rate : 9 889 kb/s
Movie name : Songbird.2020.1080p.AMZN.WEBRip.DDP5.1.x264.EN.THR .kiatplk
Encoded date : UTC 2021-04-05 22:52:47
Writing application : mkvmerge v50.0.0 ('Awakenings') 64-bit
Writing library : libebml v1.4.0 + libmatroska v1.6.2

Video
ID : 1
Format : AVC
Format/Info : Advanced Video Codec
Format profile : [email protected]
Format settings, CABAC : Yes
Format settings, RefFrames : 4 frames
Codec ID : V_MPEG4/ISO/AVC
Duration : 1 h 24 min
Bit rate mode : Constant
Bit rate : 9 150 kb/s
Nominal bit rate : 10 000 kb/s
Width : 1 920 pixels
Height : 800 pixels
Display aspect ratio : 2.40:1
Frame rate mode : Constant
Frame rate : 23.976 (24000/1001) FPS
Color space : YUV
Chroma subsampling : 4:2:0
Bit depth : 8 bits
Scan type : Progressive
Bits/(Pixel*Frame) : 0.248
Stream size : 5.42 GiB (93%)
Default : Yes
Forced : No
Color range : Limited
Color primaries : BT.709
Transfer characteristics : BT.709
Matrix coefficients : BT.709

Audio #1
ID : 2
Format : E-AC-3
Format/Info : Enhanced Audio Coding 3
Format settings, Endianness : Big
Codec ID : A_EAC3
Duration : 1 h 24 min
Bit rate mode : Constant
Bit rate : 640 kb/s
Channel(s) : 6 channels
Channel positions : Front: L C R, Side: L R, LFE
Sampling rate : 48.0 kHz
Frame rate : 187.500 FPS (256 SPF)
Compression mode : Lossy
Stream size : 388 MiB (6%)
Language : English
Service kind : Complete Main
Default : Yes
Forced : No

Audio #2
ID : 4
Format : AAC
Format/Info : Advanced Audio Codec
Format profile : LC
Codec ID : A_AAC
Duration : 1 h 24 min
Bit rate : 96.0 kb/s
Channel(s) : 2 channels
Channel positions : Front: L R
Sampling rate : 48.0 kHz
Frame rate : 46.875 FPS (1024 SPF)
Compression mode : Lossy
Stream size : 58.3 MiB (1%)
Title : THR
Language : Thai
Default : No
Forced : No

Text
ID : 3
Format : UTF-8
Codec ID : S_TEXT/UTF8
Codec ID/Info : UTF-8 Plain Text
Duration : 1 h 24 min
Bit rate : 64 b/s
Count of elements : 1254
Stream size : 40.0 KiB (0%)
Title : English (SDH)
Language : English
Default : No
Forced : No



Download:cornfile
http://cornfile.com/156ox2xx1lqk
Download:filecondo
http://www.filecondo.com/dl.php?f=E515561LtFzS