+ ตอบกลับกระทู้
สรุปผลการค้นหา 1 ถึง 3 จากทั้งหมด 3
  1. #1
    Administrators รูปส่วนตัว Duckload.us
    สมัครเมื่อ
    Dec 2010
    โพสต์
    125,245
    Thanks
    7
    Thanked 130,236 Times in 57,734 Posts

    Thumbs up [ฝรั่ง]-[NETFLIX] The Fishermans Diary (2020) บันทึกคนหาปลา-WEB-DL.AC-3.1080p. [Netflix (web-dl)]-[พากย์อังกฤษ บรรยายไทย-อังกฤษ]




    เด็กหญิงตัดสินใจฝ่าฝืนความคาดหวังของพ่อและขนบในหมู ่บ้านเพื่อแสวงหาโอกาสทางการศึกษา เพราะได้แรงบันดาลใจจากมาลาลา ยูซาฟไซ เจ้าของรางวัลโนเบลสาขาสันติภาพ

    Format : Matroska
    Format version : Version 4
    File size : 4.71 GiB
    Duration : 2 h 22 min
    Overall bit rate : 4 723 kb/s
    Encoded date : UTC 2021-04-04 15:30:21
    Writing application : mkvmerge v55.0.0 ('Waiting For Space') 64-bit
    Writing library : libebml v1.4.2 + libmatroska v1.6.4

    Video
    ID : 1
    Format : AVC
    Format/Info : Advanced Video Codec
    Format profile : [email protected]
    Format settings : CABAC / 3 Ref Frames
    Format settings, CABAC : Yes
    Format settings, Reference : 3 frames
    Codec ID : V_MPEG4/ISO/AVC
    Duration : 2 h 22 min
    Bit rate : 4 527 kb/s
    Width : 1 920 pixels
    Height : 1 012 pixels
    Display aspect ratio : 1.897
    Frame rate mode : Constant
    Frame rate : 25.000 FPS
    Color space : YUV
    Chroma subsampling : 4:2:0
    Bit depth : 8 bits
    Scan type : Progressive
    Bits/(Pixel*Frame) : 0.093
    Stream size : 4.52 GiB (96%)
    Language : English
    Default : Yes
    Forced : No

    Audio
    ID : 2
    Format : E-AC-3
    Format/Info : Enhanced AC-3
    Commercial name : Dolby Digital Plus
    Codec ID : A_EAC3
    Duration : 2 h 22 min
    Bit rate mode : Constant
    Bit rate : 128 kb/s
    Channel(s) : 2 channels
    Channel layout : L R
    Sampling rate : 48.0 kHz
    Frame rate : 31.250 FPS (1536 SPF)
    Compression mode : Lossy
    Stream size : 131 MiB (3%)
    Title : E-AC3 English
    Language : English
    Service kind : Complete Main
    Default : Yes
    Forced : No

    Text #1
    ID : 3
    Format : VobSub
    Muxing mode : zlib
    Codec ID : S_VOBSUB
    Codec ID/Info : Picture based subtitle format used on DVDs
    Duration : 2 h 22 min
    Bit rate : 8 430 b/s
    Count of elements : 1472
    Stream size : 8.60 MiB (0%)
    Title : Sub Thai 1080p
    Language : Thai
    Default : No
    Forced : No

    Text #2
    ID : 4
    Format : UTF-8
    Codec ID : S_TEXT/UTF8
    Codec ID/Info : UTF-8 Plain Text
    Duration : 2 h 22 min
    Bit rate : 87 b/s
    Count of elements : 1472
    Stream size : 91.0 KiB (0%)
    Title : Sub Thai SRT
    Language : Thai
    Default : No
    Forced : No

    Text #3
    ID : 5
    Format : PGS
    Muxing mode : zlib
    Codec ID : S_HDMV/PGS
    Codec ID/Info : Picture based subtitle format used on BDs/HD-DVDs
    Duration : 2 h 22 min
    Bit rate : 25.2 kb/s
    Count of elements : 2944
    Stream size : 25.7 MiB (1%)
    Title : Sub Thai PGS
    Language : Thai
    Default : No
    Forced : No

    Text #4
    ID : 6
    Format : PGS
    Muxing mode : zlib
    Codec ID : S_HDMV/PGS
    Codec ID/Info : Picture based subtitle format used on BDs/HD-DVDs
    Duration : 2 h 22 min
    Bit rate : 41.9 kb/s
    Count of elements : 2944
    Stream size : 42.7 MiB (1%)
    Title : Sub Thai PGS NETFLIX
    Language : Thai
    Default : Yes
    Forced : No

    Text #5
    ID : 7
    Format : VobSub
    Muxing mode : zlib
    Codec ID : S_VOBSUB
    Codec ID/Info : Picture based subtitle format used on DVDs
    Duration : 2 h 21 min
    Bit rate : 11.0 kb/s
    Count of elements : 1775
    Stream size : 11.1 MiB (0%)
    Title : Sub English 1080p
    Language : English
    Default : No
    Forced : No

    Text #6
    ID : 8
    Format : UTF-8
    Codec ID : S_TEXT/UTF8
    Codec ID/Info : UTF-8 Plain Text
    Duration : 2 h 21 min
    Bit rate : 49 b/s
    Count of elements : 1775
    Stream size : 51.5 KiB (0%)
    Title : Sub English SRT
    Language : English
    Default : No
    Forced : No

    Text #7
    ID : 9
    Format : PGS
    Muxing mode : zlib
    Codec ID : S_HDMV/PGS
    Codec ID/Info : Picture based subtitle format used on BDs/HD-DVDs
    Duration : 2 h 21 min
    Bit rate : 30.2 kb/s
    Count of elements : 3550
    Stream size : 30.6 MiB (1%)
    Title : Sub English PGS
    Language : English
    Default : No
    Forced : No






    Download:cornfile
    The Fisherman's Diary (2020).mkv - 4.7 GB
    The.Fishermans.Diary.2020.1080p.NF.WEB-DL.DDP2.0.H.264.mkv - 4.5 GB

    Download:filecondo
    The Fisherman's Diary (2020).mkv - 4.7 GB
    The.Fishermans.Diary.2020.1080p.NF.WEB-DL.DDP2.0.H.264.mkv - 4.5 GB

  2. #2
    Senior Member
    สมัครเมื่อ
    Jul 2013
    โพสต์
    1,962
    Thanks
    0
    Thanked 0 Times in 0 Posts
    ขอบคุณครับ

  3. #3
    Senior Member
    สมัครเมื่อ
    Jul 2013
    โพสต์
    328
    Thanks
    932
    Thanked 0 Times in 0 Posts
    ขอบคุณมากๆค่ะ^^

+ ตอบกลับกระทู้

ข้อมูลกระทู้

Users Browsing this Thread

ในขณะนี้มี 1 ท่านดูกระทู้อยู่. (0 สมาชิกและ 1 ผู้เยี่ยมชม)

     

กฎการโพสต์ข้อความ

  • ท่าน ไม่สามารถ ตั้งกระทู้ใหม่ได้
  • ท่าน ไม่สามารถ ตอบกระทู้ได้
  • ท่าน ไม่สามารถ แนบไฟล์ได้
  • ท่าน ไม่สามารถ แก้ไขข้อความโพสต์ได้
  • BB code สถานะ เปิด
  • Smilies สถานะ เปิด
  • [IMG] สถานะ เปิด
  • HTML สถานะ ปิด