+ ตอบกลับกระทู้
สรุปผลการค้นหา 1 ถึง 3 จากทั้งหมด 3
  1. #1
    Administrators รูปส่วนตัว Duckload.us
    สมัครเมื่อ
    Dec 2010
    โพสต์
    125,249
    Thanks
    7
    Thanked 130,237 Times in 57,734 Posts

    Thumbs up [จีน]-Sword of Destiny (2020) ปรมาจารย์ช่างตีดาบ - [Soundtrack] [บรรยายไทย+อังกฤษ] 1080p.WEB-DL.H264-upscale




    ปรมาจารย์ช่างตีดาบอันดับหนึ่งในใต้หล้านามเหมิงเหย่ จื่อถูกฆ่าล้างตระกูลโดยขุนนางชั่วนามจ้าวหานเนื่องจ ากหลอมดาบชื่อดังหานกวงขึ้นมา ทั้งนี้เขาได้ทุ่มเทรักษาชีวิตเหมิงหยางและรักษาดาบเ ฉิงอิ่งที่ยังไม่เสร็จเอาไว้ได้ ยี่สิบปีต่อมาเหมิงหยางเติบโตเป็นผู้ใหญ่ จึงวางแผนแก้แค้นให้บิดา ทว่าดาบเฉิงอิ่งที่สามารถปราบดาบหานกวงได้ทั้งกลับไม ่อาจทำให้เสร็จสมบูรณ์ได้ เมื่อฮ่องเต้ป่วยหนัก สถานการณ์ประจวบเหมาะ เหมิงหยางได้รับภารกิจอารักขาองค์ชายรัชทาบาทกลับวัง หลวงเพื่อสืบต่อราชบัลลังก์ เพื่อจะได้ตรวจสอบความจริงเรื่องการฆาตกรรมล้างตระกู ลเหมิงและแก้แค้นด้วยและ เหมิงหยางจึงรับภารกิจนี้ ทว่าระหว่างทางกลับเกิดเรื่องที่อันตรายถึงชีวิตอีกค รั้ง


    Duration : 1 h 31 min
    Overall bit rate : 2 713 kb/s
    Encoded date : UTC 2021-04-06 01:29:29
    Writing application : mkvmerge v56.0.0 ('Strasbourg / St. Denis') 64-bit
    Writing library : libebml v1.4.2 + libmatroska v1.6.4
    Cover : Yes
    Attachments : cover

    Video
    ID : 1
    Format : AVC
    Format/Info : Advanced Video Codec
    Format profile : [email protected]
    Format settings : CABAC / 1 Ref Frames
    Format settings, CABAC : Yes
    Format settings, Reference frames : 1 frame
    Format settings, GOP : M=1, N=12
    Codec ID : V_MPEG4/ISO/AVC
    Duration : 1 h 31 min
    Bit rate : 2 499 kb/s
    Width : 1 920 pixels
    Height : 1 080 pixels
    Display aspect ratio : 2.40:1
    Frame rate mode : Constant
    Frame rate : 25.000 FPS
    Color space : YUV
    Chroma subsampling : 4:2:0
    Bit depth : 8 bits
    Scan type : Progressive
    Bits/(Pixel*Frame) : 0.048
    Stream size : 1.59 GiB (92%)
    Language : English
    Default : Yes
    Forced : No

    Audio
    ID : 2
    Format : AAC LC
    Format/Info : Advanced Audio Codec Low Complexity
    Codec ID : A_AAC-2
    Duration : 1 h 31 min
    Bit rate : 192 kb/s
    Channel(s) : 2 channels
    Channel layout : L R
    Sampling rate : 44.1 kHz
    Frame rate : 43.066 FPS (1024 SPF)
    Compression mode : Lossy
    Delay relative to video : -20 ms
    Stream size : 125 MiB (7%)
    Language : Chinese
    Default : Yes
    Forced : No

    Text #1
    ID : 3
    Format : UTF-8
    Codec ID : S_TEXT/UTF8
    Codec ID/Info : UTF-8 Plain Text
    Duration : 1 h 27 min
    Bit rate : 31 b/s
    Count of elements : 1045
    Stream size : 20.2 KiB (0%)
    Language : English
    Default : No
    Forced : No

    Text #2
    ID : 4
    Format : PGS
    Muxing mode : zlib
    Codec ID : S_HDMV/PGS
    Codec ID/Info : Picture based subtitle format used on BDs/HD-DVDs
    Duration : 1 h 27 min
    Bit rate : 18.8 kb/s
    Count of elements : 2090
    Stream size : 11.8 MiB (1%)
    Language : English
    Default : No
    Forced : No

    Text #3
    ID : 5
    Format : UTF-8
    Codec ID : S_TEXT/UTF8
    Codec ID/Info : UTF-8 Plain Text
    Duration : 1 h 27 min
    Bit rate : 85 b/s
    Count of elements : 1061
    Stream size : 54.6 KiB (0%)
    Language : Thai
    Default : No
    Forced : No

    Text #4
    ID : 6
    Format : PGS
    Muxing mode : zlib
    Codec ID : S_HDMV/PGS
    Codec ID/Info : Picture based subtitle format used on BDs/HD-DVDs
    Duration : 1 h 27 min
    Bit rate : 17.6 kb/s
    Count of elements : 2122
    Stream size : 11.0 MiB (1%)
    Language : Thai
    Default : Yes
    Forced : No





    Download:cornfile
    http://cornfile.com/wm6fa200w9fu
    Download:filecondo
    http://www.filecondo.com/dl.php?f=E7916f1LtYKL

  2. The Following 2 Users Say Thank You to Duckload.us For This Useful Post:

    noi54 (04-08-2021), santiphap_red (04-09-2021)

  3. #2
    Senior Member
    สมัครเมื่อ
    Jul 2013
    โพสต์
    1,962
    Thanks
    0
    Thanked 0 Times in 0 Posts
    ขอบคุณครับ

  4. #3
    Senior Member
    สมัครเมื่อ
    Oct 2013
    โพสต์
    1,910
    Thanks
    0
    Thanked 0 Times in 0 Posts
    ขอบคุณครับ

+ ตอบกลับกระทู้

ข้อมูลกระทู้

Users Browsing this Thread

ในขณะนี้มี 1 ท่านดูกระทู้อยู่. (0 สมาชิกและ 1 ผู้เยี่ยมชม)

     

กฎการโพสต์ข้อความ

  • ท่าน ไม่สามารถ ตั้งกระทู้ใหม่ได้
  • ท่าน ไม่สามารถ ตอบกระทู้ได้
  • ท่าน ไม่สามารถ แนบไฟล์ได้
  • ท่าน ไม่สามารถ แก้ไขข้อความโพสต์ได้
  • BB code สถานะ เปิด
  • Smilies สถานะ เปิด
  • [IMG] สถานะ เปิด
  • HTML สถานะ ปิด