+ ตอบกลับกระทู้
สรุปผลการค้นหา 1 ถึง 2 จากทั้งหมด 2
  1. #1
    Administrators รูปส่วนตัว Duckload.us
    สมัครเมื่อ
    Dec 2010
    โพสต์
    125,233
    Thanks
    7
    Thanked 130,235 Times in 57,734 Posts

    Angry [จีน]-[HQ] Happy Together (1997) โลกนี้รักใครไม่ได้นอกจากเขา [ไทย 5.1 - จีน DTS] - รำลึก 15 ปี การจากไปของ เลสลี่ จาง-Encode.H.264.1080p. [Modified]-[พากย์ไทย บรรยายไทย]



    Profile
    Movie: Happy Together
    Chinese: 春 光 乍 洩
    Director: Wong Kar-Wai
    Writer: Wong Kar-Wai
    Producer: Wong Kar-Wai
    Cinematographer
    Release Date: April 29, 1997
    Runtime: 96 min
    Language: Cantonese, Mandarin, Spanish
    Country: Hong Kong

    นำแสดงโดย
    Leslie Cheung
    Tony Leung Chiu Wai
    Chang Chen

    เรื่องย่อ
    เรื่องของเยี่ยฟา กับหวังเป่า คู่รักชายชาวฮ่องกง ที่หอบเสื่อผืนหมอนใบไปอาร์เจนติน่า เพื่อหวังจะได้ไปยืนดูน้ำตกอีกัวซูร่วมกัน ก่อนจะถังแตกและต้องปักหลักหาเลี้ยงชีพอยู่ในต่างบ้า นต่างเมืองไปตามยถากรรม

    ความสัมพันธ์ของทั้งคู่เป็นในแบบรัก ๆ เลิก ๆ ทั้งรักทั้งเกลียด ตัดไม่ตาย ขายไม่ขาด ทุกครั้งหวังเป่า มักจะเป็นฝ่ายบอกเลิกกับเยี่ยฟาเสมอ ก่อนจะกลับมาง้อขอ “เริ่มต้นใหม่อีกครั้ง” ซึ่งเยี่ยฟา ก็ต้องอ่อนแอแพ้ทางให้ทุกครั้งไป


    General
    Complete name : Happy.Together.1997.BluRay.1080p.DTS.x264.mkv
    Format : Matroska
    Format version : Version 4
    File size : 16.0 GiB
    Duration : 1 h 35 min
    Overall bit rate : 23.9 Mb/s
    Movie name : Happy.Together.1997.BluRay.1080p.DTS.x264 - [email protected]
    Encoded date : UTC 2021-04-03 04:59:51
    Writing application : mkvmerge v45.0.0 ('Heaven in Pennies') 64-bit
    Writing library : libebml v1.3.10 + libmatroska v1.5.2
    Attachments : Happy Together 1997.jpg

    Video
    ID : 1
    Format : AVC
    Format/Info : Advanced Video Codec
    Format profile : [email protected]
    Format settings : CABAC / 4 Ref Frames
    Format settings, CABAC : Yes
    Format settings, RefFrames : 4 frames
    Codec ID : V_MPEG4/ISO/AVC
    Duration : 1 h 35 min
    Bit rate : 22.0 Mb/s
    Width : 1 920 pixels
    Height : 1 038 pixels
    Display aspect ratio : 1.85:1
    Frame rate mode : Constant
    Frame rate : 23.976 (24000/1001) FPS
    Color space : YUV
    Chroma subsampling : 4:2:0
    Bit depth : 8 bits
    Scan type : Progressive
    Bits/(Pixel*Frame) : 0.460
    Stream size : 14.7 GiB (92%)
    Writing library : x264 core 124 r2197+666+28 3970b70 tMod+MixAQ [[email protected]:2:0 X86]
    Encoding settings : cabac=1 / ref=4 / deblock=1:-3:-3 / analyse=0x3:0x133 / me=tesa / subme=11 / psy=1 / fade_compensate=0.00 / psy_rd=1.10:0.10 / mixed_ref=1 / me_range=64 / chroma_me=1 / trellis=2 / 8x8dct=1 / cqm=0 / deadzone=21,11 / fast_pskip=0 / chroma_qp_offset=-3 / threads=12 / sliced_threads=0 / nr=0 / decimate=0 / interlaced=0 / bluray_compat=0 / constrained_intra=0 / fgo=0 / bframes=8 / b_pyramid=2 / b_adapt=2 / b_bias=0 / direct=3 / weightb=1 / open_gop=0 / weightp=2 / keyint=250 / keyint_min=23 / scenecut=40 / intra_refresh=0 / rc_lookahead=250 / rc=2pass / mbtree=0 / bitrate=22000 / ratetol=1.0 / qcomp=0.75 / qpmin=0 / qpmax=69 / qpstep=4 / cplxblur=20.0 / qblur=0.5 / vbv_maxrate=38000 / vbv_bufsize=30000 / nal_hrd=none / ip_ratio=1.20 / pb_ratio=1.10 / aq=1 / aq-strength=0.70 / aq-sensitivity=10.00 / aq-ifactor=1.00 / aq-pfactor=1.00 / aq-bfactor=1.00 / aq2=0
    Language : Chinese
    Default : Yes
    Forced : No

    Audio #1
    ID : 2
    Format : AC-3
    Format/Info : Audio Coding 3
    Commercial name : Dolby Digital
    Codec ID : A_AC3
    Duration : 1 h 35 min
    Bit rate mode : Constant
    Bit rate : 448 kb/s
    Channel(s) : 6 channels
    Channel layout : L R C LFE Ls Rs
    Sampling rate : 48.0 kHz
    Frame rate : 31.250 FPS (1536 SPF)
    Bit depth : 16 bits
    Compression mode : Lossy
    Delay relative to video : 24 ms
    Stream size : 307 MiB (2%)
    Title : Thai AC-3
    Language : Thai
    Service kind : Complete Main
    Default : Yes
    Forced : No

    Audio #2
    ID : 3
    Format : DTS
    Format/Info : Digital Theater Systems
    Codec ID : A_DTS
    Duration : 1 h 35 min
    Bit rate mode : Constant
    Bit rate : 1 509 kb/s
    Channel(s) : 6 channels
    Channel layout : C L R Ls Rs LFE
    Sampling rate : 48.0 kHz
    Frame rate : 93.750 FPS (512 SPF)
    Bit depth : 16 bits
    Compression mode : Lossy
    Stream size : 1.01 GiB (6%)
    Title : Chinese DTS 5.1
    Language : Chinese
    Default : No
    Forced : No

    Text #1
    ID : 4
    Format : VobSub
    Muxing mode : zlib
    Codec ID : S_VOBSUB
    Codec ID/Info : Picture based subtitle format used on DVDs
    Duration : 1 h 33 min
    Bit rate : 4 942 b/s
    Count of elements : 691
    Stream size : 3.30 MiB (0%)
    Title : Thai 1080p
    Language : Thai
    Default : Yes
    Forced : No

    Text #2
    ID : 5
    Format : VobSub
    Muxing mode : zlib
    Codec ID : S_VOBSUB
    Codec ID/Info : Picture based subtitle format used on DVDs
    Duration : 1 h 33 min
    Bit rate : 4 942 b/s
    Count of elements : 691
    Stream size : 3.30 MiB (0%)
    Title : Thai 1080p Yellow
    Language : Thai
    Default : No
    Forced : No

    Text #3
    ID : 6
    Format : VobSub
    Muxing mode : zlib
    Codec ID : S_VOBSUB
    Codec ID/Info : Picture based subtitle format used on DVDs
    Duration : 1 h 33 min
    Bit rate : 4 619 b/s
    Count of elements : 691
    Stream size : 3.08 MiB (0%)
    Title : Thai 1080p Out
    Language : Thai
    Default : No
    Forced : No

    Text #4
    ID : 7
    Format : PGS
    Muxing mode : zlib
    Codec ID : S_HDMV/PGS
    Codec ID/Info : Picture based subtitle format used on BDs/HD-DVDs
    Duration : 1 h 33 min
    Bit rate : 17.4 kb/s
    Count of elements : 1382
    Stream size : 11.6 MiB (0%)
    Title : Thai PGS
    Language : Thai
    Default : No
    Forced : No

    Text #5
    ID : 8
    Format : PGS
    Muxing mode : zlib
    Codec ID : S_HDMV/PGS
    Codec ID/Info : Picture based subtitle format used on BDs/HD-DVDs
    Duration : 1 h 33 min
    Bit rate : 18.9 kb/s
    Count of elements : 1382
    Stream size : 12.6 MiB (0%)
    Title : Thai PGS Out
    Language : Thai
    Default : No
    Forced : No

    Text #6
    ID : 9
    Format : UTF-8
    Codec ID : S_TEXT/UTF8
    Codec ID/Info : UTF-8 Plain Text
    Duration : 1 h 35 min
    Bit rate : 26 b/s
    Count of elements : 622
    Stream size : 18.3 KiB (0%)
    Title : Eng SRT
    Language : English
    Default : No
    Forced : No

    Menu
    00:00:00.000 : en:00:00:00.000
    00:07:27.405 : en:00:07:27.405
    00:12:37.507 : en:00:12:37.507
    00:19:41.013 : en:00:19:41.013
    00:25:24.148 : en:00:25:24.148
    00:32:11.179 : en:00:32:11.179
    00:39:08.304 : en:00:39:08.304
    00:43:37.532 : en:00:43:37.532
    00:48:46.090 : en:00:48:46.090
    00:53:28.372 : en:00:53:28.372
    01:01:21.845 : en:01:01:21.845
    01:07:24.332 : en:01:07:24.332
    01:10:55.793 : en:01:10:55.793
    01:16:25.831 : en:01:16:25.831
    01:28:16.833 : en:01:28:16.833



    http://cornfile.com/24nyccnij797

  2. #2
    Senior Member
    สมัครเมื่อ
    Jul 2013
    โพสต์
    1,962
    Thanks
    0
    Thanked 0 Times in 0 Posts
    ขอบคุรครับ

+ ตอบกลับกระทู้

ข้อมูลกระทู้

Users Browsing this Thread

ในขณะนี้มี 1 ท่านดูกระทู้อยู่. (0 สมาชิกและ 1 ผู้เยี่ยมชม)

     

กฎการโพสต์ข้อความ

  • ท่าน ไม่สามารถ ตั้งกระทู้ใหม่ได้
  • ท่าน ไม่สามารถ ตอบกระทู้ได้
  • ท่าน ไม่สามารถ แนบไฟล์ได้
  • ท่าน ไม่สามารถ แก้ไขข้อความโพสต์ได้
  • BB code สถานะ เปิด
  • Smilies สถานะ เปิด
  • [IMG] สถานะ เปิด
  • HTML สถานะ ปิด