+ ตอบกลับกระทู้
สรุปผลการค้นหา 1 ถึง 3 จากทั้งหมด 3
  1. #1
    Administrators รูปส่วนตัว Duckload.us
    สมัครเมื่อ
    Dec 2010
    โพสต์
    126,530
    Thanks
    7
    Thanked 131,173 Times in 58,087 Posts

    Thumbs up [เกาหลี]-[NETFLIX] Night in Paradise (2021) คืนดับแดนสวรรค์-WEB-DL.EAC-3.1080p. [Netflix (web-dl)]-[พากย์เกาหลี 5.1 อังกฤษ 5.1 ไทย 5.1 บรรยายไทย-อังกฤษ]



    อาชญากรที่กลายเป็นเหยื่อโศกนาฏกรรมนองเลือดต้องหนีก ารไล่ล่ามากบดานบนเกาะเซจู และได้สานสัมพันธ์กับผู้หญิงซึ่งมีเบื้องหลังที่ขมขื ่น

    Format : Matroska
    Format version : Version 4
    File size : 5.12 GiB
    Duration : 2 h 12 min
    Overall bit rate : 5 551 kb/s
    Encoded date : UTC 2021-04-09 13:27:42
    Writing application : mkvmerge v56.0.0 ('Strasbourg / St. Denis') 64-bit
    Writing library : libebml v1.4.2 + libmatroska v1.6.4

    Video
    ID : 1
    Format : AVC
    Format/Info : Advanced Video Codec
    Format profile : [email protected]
    Format settings : CABAC / 3 Ref Frames
    Format settings, CABAC : Yes
    Format settings, Reference : 3 frames
    Codec ID : V_MPEG4/ISO/AVC
    Duration : 2 h 12 min
    Bit rate : 3 570 kb/s
    Width : 1 920 pixels
    Height : 804 pixels
    Display aspect ratio : 2.40:1
    Frame rate mode : Constant
    Frame rate : 23.976 (24000/1001) FPS
    Color space : YUV
    Chroma subsampling : 4:2:0
    Bit depth : 8 bits
    Scan type : Progressive
    Bits/(Pixel*Frame) : 0.096
    Stream size : 3.29 GiB (64%)
    Language : Korean
    Default : Yes
    Forced : No

    Audio #1
    ID : 2
    Format : E-AC-3
    Format/Info : Enhanced AC-3
    Commercial name : Dolby Digital Plus
    Codec ID : A_EAC3
    Duration : 2 h 12 min
    Bit rate mode : Constant
    Bit rate : 640 kb/s
    Channel(s) : 6 channels
    Channel layout : L R C LFE Ls Rs
    Sampling rate : 48.0 kHz
    Frame rate : 31.250 FPS (1536 SPF)
    Compression mode : Lossy
    Stream size : 604 MiB (12%)
    Title : E-AC3 Korean
    Language : Korean
    Service kind : Complete Main
    Default : Yes
    Forced : No

    Audio #2
    ID : 3
    Format : E-AC-3
    Format/Info : Enhanced AC-3
    Commercial name : Dolby Digital Plus
    Codec ID : A_EAC3
    Duration : 2 h 12 min
    Bit rate mode : Constant
    Bit rate : 640 kb/s
    Channel(s) : 6 channels
    Channel layout : L R C LFE Ls Rs
    Sampling rate : 48.0 kHz
    Frame rate : 31.250 FPS (1536 SPF)
    Compression mode : Lossy
    Stream size : 604 MiB (12%)
    Title : E-AC3 English
    Language : English
    Service kind : Complete Main
    Default : No
    Forced : No

    Audio #3
    ID : 4
    Format : E-AC-3
    Format/Info : Enhanced AC-3
    Commercial name : Dolby Digital Plus
    Codec ID : A_EAC3
    Duration : 2 h 12 min
    Bit rate mode : Constant
    Bit rate : 640 kb/s
    Channel(s) : 6 channels
    Channel layout : L R C LFE Ls Rs
    Sampling rate : 48.0 kHz
    Frame rate : 31.250 FPS (1536 SPF)
    Compression mode : Lossy
    Stream size : 604 MiB (12%)
    Title : E-AC3 Thai
    Language : Thai
    Service kind : Complete Main
    Default : No
    Forced : No

    Text #1
    ID : 5
    Format : VobSub
    Muxing mode : zlib
    Codec ID : S_VOBSUB
    Codec ID/Info : Picture based subtitle format used on DVDs
    Duration : 2 h 11 min
    Bit rate : 8 463 b/s
    Count of elements : 1307
    Stream size : 7.94 MiB (0%)
    Title : Sub Thai 1080p
    Language : Thai
    Default : No
    Forced : No

    Text #2
    ID : 6
    Format : UTF-8
    Codec ID : S_TEXT/UTF8
    Codec ID/Info : UTF-8 Plain Text
    Duration : 2 h 11 min
    Bit rate : 87 b/s
    Count of elements : 1307
    Stream size : 84.1 KiB (0%)
    Title : Sub Thai SRT
    Language : Thai
    Default : No
    Forced : No

    Text #3
    ID : 7
    Format : PGS
    Muxing mode : zlib
    Codec ID : S_HDMV/PGS
    Codec ID/Info : Picture based subtitle format used on BDs/HD-DVDs
    Duration : 2 h 11 min
    Bit rate : 25.3 kb/s
    Count of elements : 2614
    Stream size : 23.7 MiB (0%)
    Title : Sub Thai PGS
    Language : Thai
    Default : No
    Forced : No

    Text #4
    ID : 8
    Format : PGS
    Muxing mode : zlib
    Codec ID : S_HDMV/PGS
    Codec ID/Info : Picture based subtitle format used on BDs/HD-DVDs
    Duration : 2 h 11 min
    Bit rate : 41.8 kb/s
    Count of elements : 2614
    Stream size : 39.2 MiB (1%)
    Title : Sub Thai PGS NETFLIX
    Language : Thai
    Default : Yes
    Forced : No

    Text #5
    ID : 9
    Format : VobSub
    Muxing mode : zlib
    Codec ID : S_VOBSUB
    Codec ID/Info : Picture based subtitle format used on DVDs
    Duration : 2 h 10 min
    Bit rate : 6 843 b/s
    Count of elements : 1297
    Stream size : 6.40 MiB (0%)
    Title : Sub English 1080p
    Language : English
    Default : No
    Forced : No

    Text #6
    ID : 10
    Format : UTF-8
    Codec ID : S_TEXT/UTF8
    Codec ID/Info : UTF-8 Plain Text
    Duration : 2 h 10 min
    Bit rate : 31 b/s
    Count of elements : 1297
    Stream size : 30.0 KiB (0%)
    Title : Sub English SRT
    Language : English
    Default : No
    Forced : No

    Text #7
    ID : 11
    Format : PGS
    Muxing mode : zlib
    Codec ID : S_HDMV/PGS
    Codec ID/Info : Picture based subtitle format used on BDs/HD-DVDs
    Duration : 2 h 10 min
    Bit rate : 19.4 kb/s
    Count of elements : 2594
    Stream size : 18.1 MiB (0%)
    Title : Sub English PGS
    Language : English
    Default : No
    Forced : No






    Download:cornfile
    http://cornfile.com/0dhd2idml0za
    Download:filecondo
    http://www.filecondo.com/dl.php?f=q202f71Lvdz8

  2. The Following 2 Users Say Thank You to Duckload.us For This Useful Post:

    noi54 (04-12-2021), Wesker_TOT (04-12-2021)

  3. #2
    Senior Member
    สมัครเมื่อ
    Jul 2013
    โพสต์
    2,118
    Thanks
    0
    Thanked 0 Times in 0 Posts
    ขอบคุณครับผม

  4. #3
    Senior Member
    สมัครเมื่อ
    Dec 2013
    โพสต์
    2,792
    Thanks
    4,711
    Thanked 0 Times in 0 Posts
    ขอบคุณครับ...

+ ตอบกลับกระทู้

ข้อมูลกระทู้

Users Browsing this Thread

ในขณะนี้มี 1 ท่านดูกระทู้อยู่. (0 สมาชิกและ 1 ผู้เยี่ยมชม)

     

กฎการโพสต์ข้อความ

  • ท่าน ไม่สามารถ ตั้งกระทู้ใหม่ได้
  • ท่าน ไม่สามารถ ตอบกระทู้ได้
  • ท่าน ไม่สามารถ แนบไฟล์ได้
  • ท่าน ไม่สามารถ แก้ไขข้อความโพสต์ได้
  • BB code สถานะ เปิด
  • Smilies สถานะ เปิด
  • [IMG] สถานะ เปิด
  • HTML สถานะ ปิด