+ ตอบกลับกระทู้
สรุปผลการค้นหา 1 ถึง 5 จากทั้งหมด 5
  1. #1
    Administrators รูปส่วนตัว Duckload.us
    สมัครเมื่อ
    Dec 2010
    โพสต์
    126,530
    Thanks
    7
    Thanked 131,171 Times in 58,087 Posts

    Thumbs up [ฝรั่ง]-[HBO] Zack Snyders Justice League Snyders Cut (2021) จัสติส ลีก สไนเดอร์คัท [เสียง:อังกฤษ-ไทย HBO AC-3][บรรยาย: ไทย HBO PGS-อังกฤษ SRT]-WEB-DL.H.264.1080p. [Rip]-[พากย์ไทย บรรยายไทย]



    สำหรับ Justice League กำกับโดย แซ็ค สไนเดอร์ เป็นการเล่าเรื่องหลังจากเหตุการณ์เสียสละของ ซูเปอร์แมน (เฮนรี่ คาวิลล์) ที่กอบกู้โลกจากหายนะที่เหล่าวายร้ายอย่าง สเต็ปเปนวูล์ฟ เดอซาด และดาร์คซายด์ ก่อขึ้น ทำให้แบทแมน (เบน แอฟเฟล็ก) ต้องขอความช่วยเหลือจาก วันเดอร์ วูแมน (กัล กาด็อต) เพื่อรวมทีมยอดมนุษย์ในการผนึกกำลังเผชิญหน้ากับศัตร ูและต่อสู้กับมหันตภัยร้ายครั้งใหญ่ที่กำลังจะมาถึง แต่การรวมทีมเหล่าฮีโร่ที่ไม่เคยมีมาก่อนอย่าง แบทแมน, วันเดอร์ วูแมน, อควาแมน (เจสัน โมมัว), ไซบอร์ก (เรย์ ฟิชเชอร์) และ เดอะ แฟลช (เอซรา มิลเลอร์) อาจสายเกินไปสำหรับการกอบกู้โลกจากเหล่าร้ายที่บุกจู ่โจมในครั้งนี้

    Video
    ID : 1
    Format : AVC
    Format/Info : Advanced Video Codec
    Format profile : [email protected]
    Format settings : CABAC / 4 Ref Frames
    Format settings, CABAC : Yes
    Format settings, Reference fra : 4 frames
    Codec ID : V_MPEG4/ISO/AVC
    Duration : 4 h 2 min
    Bit rate mode : Variable
    Bit rate : 8 221 kb/s
    Maximum bit rate : 12.4 Mb/s
    Width : 1 920 pixels
    Height : 1 080 pixels
    Display aspect ratio : 16:9
    Frame rate mode : Constant
    Frame rate : 23.976 (24000/1001) FPS
    Color space : YUV
    Chroma subsampling : 4:2:0
    Bit depth : 8 bits
    Scan type : Progressive
    Bits/(Pixel*Frame) : 0.165
    Stream size : 13.9 GiB (87%)
    Default : Yes
    Forced : No
    Color range : Limited
    Color primaries : BT.709
    Transfer characteristics : BT.709
    Matrix coefficients : BT.709

    Audio #1
    ID : 2
    Format : E-AC-3 JOC
    Format/Info : Enhanced AC-3 with Joint Object Coding
    Commercial name : Dolby Digital Plus with Dolby Atmos
    Codec ID : A_EAC3
    Duration : 4 h 2 min
    Bit rate mode : Constant
    Bit rate : 768 kb/s
    Channel(s) : 6 channels
    Channel layout : L R C LFE Ls Rs
    Sampling rate : 48.0 kHz
    Frame rate : 31.250 FPS (1536 SPF)
    Compression mode : Lossy
    Stream size : 1.30 GiB (8%)
    Title : [AC-3-English]
    Language : English
    Service kind : Complete Main
    Default : No
    Forced : No
    Complexity index : 16
    Number of dynamic objects : 15
    Bed channel count : 1 channel
    Bed channel configuration : LFE

    Audio #2
    ID : 3
    Format : AC-3
    Format/Info : Audio Coding 3
    Commercial name : Dolby Digital
    Codec ID : A_AC3
    Duration : 4 h 2 min
    Bit rate mode : Constant
    Bit rate : 448 kb/s
    Channel(s) : 2 channels
    Channel layout : L R
    Sampling rate : 48.0 kHz
    Frame rate : 31.250 FPS (1536 SPF)
    Compression mode : Lossy
    Stream size : 776 MiB (5%)
    Title : [AC-3-Thai]
    Language : Thai
    Service kind : Complete Main
    Default : Yes
    Forced : No

    Text #1
    ID : 4
    Format : PGS
    Muxing mode : zlib
    Codec ID : S_HDMV/PGS
    Codec ID/Info : Picture based subtitle format used on BDs/HD-DVDs
    Duration : 4 h 1 min
    Bit rate : 26.4 kb/s
    Count of elements : 3812
    Stream size : 45.6 MiB (0%)
    Title : [EucrosiaUPC PGS]
    Language : Thai
    Default : Yes
    Forced : No

    Text #2
    ID : 5
    Format : PGS
    Muxing mode : zlib
    Codec ID : S_HDMV/PGS
    Codec ID/Info : Picture based subtitle format used on BDs/HD-DVDs
    Duration : 4 h 1 min
    Bit rate : 24.1 kb/s
    Count of elements : 3812
    Stream size : 41.7 MiB (0%)
    Title : [TH Sarabun New PGS]
    Language : Thai
    Default : No
    Forced : No

    Text #3
    ID : 6
    Format : PGS
    Muxing mode : zlib
    Codec ID : S_HDMV/PGS
    Codec ID/Info : Picture based subtitle format used on BDs/HD-DVDs
    Duration : 4 h 1 min
    Bit rate : 24.2 kb/s
    Count of elements : 3812
    Stream size : 41.8 MiB (0%)
    Title : [Cordia New PGS]
    Language : Thai
    Default : No
    Forced : No

    Text #4
    ID : 7
    Format : UTF-8
    Codec ID : S_TEXT/UTF8
    Codec ID/Info : UTF-8 Plain Text
    Duration : 4 h 0 min
    Bit rate : 40 b/s
    Count of elements : 2814
    Stream size : 70.7 KiB (0%)
    Title : SDH
    Language : English
    Default : No
    Forced : No







    16.03 GB
    Download:cornfile
    http://cornfile.com/kxgff9inhpte
    Download:filecondo
    http://www.filecondo.com/dl.php?f=J428901LvxEW

  2. The Following 3 Users Say Thank You to Duckload.us For This Useful Post:

    amorn wichian (04-12-2021), kappa (04-18-2021), Wesker_TOT (04-12-2021)

  3. #2
    Senior Member
    สมัครเมื่อ
    Jul 2013
    โพสต์
    2,116
    Thanks
    0
    Thanked 0 Times in 0 Posts
    ขอบคุณครับ

  4. #3
    Senior Member
    สมัครเมื่อ
    Dec 2013
    โพสต์
    2,792
    Thanks
    4,711
    Thanked 0 Times in 0 Posts
    ขอบคุณครับ...

  5. #4
    Senior Member
    สมัครเมื่อ
    Jul 2012
    โพสต์
    7,479
    Thanks
    0
    Thanked 0 Times in 0 Posts
    ขอบคุณมากจ้า

  6. #5
    Senior Member
    สมัครเมื่อ
    Jun 2012
    โพสต์
    1,377
    Thanks
    0
    Thanked 1 Time in 1 Post
    ขอบคุณครับ

+ ตอบกลับกระทู้

ข้อมูลกระทู้

Users Browsing this Thread

ในขณะนี้มี 1 ท่านดูกระทู้อยู่. (0 สมาชิกและ 1 ผู้เยี่ยมชม)

     

กฎการโพสต์ข้อความ

  • ท่าน ไม่สามารถ ตั้งกระทู้ใหม่ได้
  • ท่าน ไม่สามารถ ตอบกระทู้ได้
  • ท่าน ไม่สามารถ แนบไฟล์ได้
  • ท่าน ไม่สามารถ แก้ไขข้อความโพสต์ได้
  • BB code สถานะ เปิด
  • Smilies สถานะ เปิด
  • [IMG] สถานะ เปิด
  • HTML สถานะ ปิด