+ ตอบกลับกระทู้
สรุปผลการค้นหา 1 ถึง 4 จากทั้งหมด 4
  1. #1
    Administrators รูปส่วนตัว Duckload.us
    สมัครเมื่อ
    Dec 2010
    โพสต์
    126,387
    Thanks
    7
    Thanked 130,974 Times in 58,015 Posts

    Thumbs up [ฝรั่ง]-((( ใหม่ 1080p!! ))) Tom And Jerry (2021) / ทอม แอนด์ เจอร์รี่ : [ เสียงอังกฤษ 5.1 + พากย์ไทย Master 2.0 ] - [ บรรยายไทย ] -WEB-DL.AC-3.1080p. [Master]-[พากย์ไทย บรรยายไทย]



    เรื่องย่อ : เมื่อ เจอร์รี่ ย้ายไปอยู่ที่โรงแรมที่หรูหราที่สุดในมหานครนิวยอร์ก ณ ช่วงเวลาที่กำลังจะมีพิธีการแต่งงานสำคัญ เป็นเหตุให้ผู้จัดงานจำเป็นต้องจ้าง ทอม มาเพื่อกำจัดเขาให้ออกไปให้พ้นตา เกิดเป็นสงครามระหว่างแมวกับหนูที่อาจทำลายอาชีพการง านของผู้จัดงานคนนั้น ไปจนถึงพิธีแต่งงาน และชื่อเสียงอันโด่งดังของโรงแรม แถมสถานการณ์ยิ่งเลวร้ายไปกันใหญ่เมื่อมีพนักงานอีกห นึ่งคนที่พยายามเข้ามาเติมเชื้อเพลิงให้กับความวุ่นว ายระหว่างพวกเขา

    Format : Matroska
    Format version : Version 4
    File size : 3.79 GiB
    Duration : 1 h 41 min
    Overall bit rate : 5 373 kb/s
    Encoded date : UTC 2021-04-10 23:37:05
    Writing application : mkvmerge v56.0.0 ('Strasbourg / St. Denis') 64-bit
    Writing library : libebml v1.4.2 + libmatroska v1.6.4

    Video #1
    ID : 1
    Format : AVC
    Format/Info : Advanced Video Codec
    Format profile : [email protected]
    Format settings : CABAC / 4 Ref Frames
    Format settings, CABAC : Yes
    Format settings, Reference frames : 4 frames
    Codec ID : V_MPEG4/ISO/AVC
    Duration : 1 h 41 min
    Bit rate : 2 250 kb/s
    Width : 1 920 pixels
    Height : 1 024 pixels
    Display aspect ratio : 1.85:1
    Frame rate mode : Constant
    Frame rate : 23.976 (24000/1001) FPS
    Color space : YUV
    Chroma subsampling : 4:2:0
    Bit depth : 8 bits
    Scan type : Progressive
    Bits/(Pixel*Frame) : 0.048
    Stream size : 1.59 GiB (42%)
    Writing library : x264 core 161
    Encoding settings : cabac=1 / ref=4 / deblock=1:-1:-1 / analyse=0x3:0x133 / me=umh / subme=9 / psy=1 / psy_rd=1.00:0.15 / mixed_ref=1 / me_range=24 / chroma_me=1 / trellis=2 / 8x8dct=1 / cqm=0 / deadzone=21,11 / fast_pskip=0 / chroma_qp_offset=-3 / threads=24 / lookahead_threads=2 / sliced_threads=0 / nr=0 / decimate=1 / interlaced=0 / bluray_compat=0 / constrained_intra=0 / bframes=3 / b_pyramid=2 / b_adapt=2 / b_bias=0 / direct=3 / weightb=1 / open_gop=0 / weightp=2 / keyint=250 / keyint_min=23 / scenecut=40 / intra_refresh=0 / rc_lookahead=60 / rc=2pass / mbtree=1 / bitrate=2250 / ratetol=1.0 / qcomp=0.60 / qpmin=0 / qpmax=69 / qpstep=4 / cplxblur=20.0 / qblur=0.5 / vbv_maxrate=31250 / vbv_bufsize=31250 / nal_hrd=none / filler=0 / ip_ratio=1.40 / aq=1:1.00
    Default : Yes
    Forced : No
    Color range : Limited
    Color primaries : BT.709
    Transfer characteristics : BT.709
    Matrix coefficients : BT.709

    Video #2
    ID : 4
    Format : AVC
    Format/Info : Advanced Video Codec
    Format profile : [email protected]
    Format settings : CABAC / 4 Ref Frames
    Format settings, CABAC : Yes
    Format settings, Reference frames : 4 frames
    Codec ID : V_MPEG4/ISO/AVC
    Duration : 1 h 41 min
    Bit rate : 2 250 kb/s
    Width : 1 920 pixels
    Height : 1 024 pixels
    Display aspect ratio : 1.85:1
    Frame rate mode : Constant
    Frame rate : 23.976 (24000/1001) FPS
    Color space : YUV
    Chroma subsampling : 4:2:0
    Bit depth : 8 bits
    Scan type : Progressive
    Bits/(Pixel*Frame) : 0.048
    Stream size : 1.59 GiB (42%)
    Writing library : x264 core 161
    Encoding settings : cabac=1 / ref=4 / deblock=1:-1:-1 / analyse=0x3:0x133 / me=umh / subme=9 / psy=1 / psy_rd=1.00:0.15 / mixed_ref=1 / me_range=24 / chroma_me=1 / trellis=2 / 8x8dct=1 / cqm=0 / deadzone=21,11 / fast_pskip=0 / chroma_qp_offset=-3 / threads=24 / lookahead_threads=2 / sliced_threads=0 / nr=0 / decimate=1 / interlaced=0 / bluray_compat=0 / constrained_intra=0 / bframes=3 / b_pyramid=2 / b_adapt=2 / b_bias=0 / direct=3 / weightb=1 / open_gop=0 / weightp=2 / keyint=250 / keyint_min=23 / scenecut=40 / intra_refresh=0 / rc_lookahead=60 / rc=2pass / mbtree=1 / bitrate=2250 / ratetol=1.0 / qcomp=0.60 / qpmin=0 / qpmax=69 / qpstep=4 / cplxblur=20.0 / qblur=0.5 / vbv_maxrate=31250 / vbv_bufsize=31250 / nal_hrd=none / filler=0 / ip_ratio=1.40 / aq=1:1.00
    Default : No
    Forced : No
    Color range : Limited
    Color primaries : BT.709
    Transfer characteristics : BT.709
    Matrix coefficients : BT.709

    Audio #1
    ID : 2
    Format : AAC LC
    Format/Info : Advanced Audio Codec Low Complexity
    Codec ID : A_AAC-2
    Duration : 1 h 41 min
    Bit rate : 384 kb/s
    Channel(s) : 6 channels
    Channel layout : C L R Ls Rs LFE
    Sampling rate : 48.0 kHz
    Frame rate : 46.875 FPS (1024 SPF)
    Compression mode : Lossy
    Delay relative to video : -43 ms
    Stream size : 277 MiB (7%)
    Default : Yes
    Forced : No

    Audio #2
    ID : 5
    Format : AAC LC
    Format/Info : Advanced Audio Codec Low Complexity
    Codec ID : A_AAC-2
    Duration : 1 h 41 min
    Bit rate : 384 kb/s
    Channel(s) : 6 channels
    Channel layout : C L R Ls Rs LFE
    Sampling rate : 48.0 kHz
    Frame rate : 46.875 FPS (1024 SPF)
    Compression mode : Lossy
    Delay relative to video : -43 ms
    Stream size : 277 MiB (7%)
    Language : English
    Default : No
    Forced : No

    Audio #3
    ID : 6
    Format : AAC LC
    Format/Info : Advanced Audio Codec Low Complexity
    Codec ID : A_AAC-2
    Duration : 1 h 41 min
    Bit rate : 96.0 kb/s
    Channel(s) : 2 channels
    Channel layout : L R
    Sampling rate : 48.0 kHz
    Frame rate : 46.875 FPS (1024 SPF)
    Compression mode : Lossy
    Delay relative to video : -43 ms
    Stream size : 69.4 MiB (2%)
    Language : Thai
    Default : No
    Forced : No

    Text
    ID : 3
    Format : VobSub
    Muxing mode : zlib
    Codec ID : S_VOBSUB
    Codec ID/Info : Picture based subtitle format used on DVDs
    Duration : 1 h 40 min
    Bit rate : 8 534 b/s
    Count of elements : 1531
    Stream size : 6.13 MiB (0%)
    Language : Thai
    Default : Yes
    Forced : No



    Download:cornfile
    http://cornfile.com/g2024osv8s05
    Download:filecondo
    http://www.filecondo.com/dl.php?f=if91271Lvxkl

  2. The Following 3 Users Say Thank You to Duckload.us For This Useful Post:

    bigbang06 (04-13-2021), gaszolineskywalker (05-02-2021), Wesker_TOT (04-14-2021)

  3. #2
    Senior Member
    สมัครเมื่อ
    Dec 2013
    โพสต์
    2,755
    Thanks
    4,675
    Thanked 0 Times in 0 Posts
    ขอบคุณครับ...

  4. #3
    Senior Member
    สมัครเมื่อ
    Jul 2013
    โพสต์
    2,089
    Thanks
    0
    Thanked 0 Times in 0 Posts
    ขอบคุณครับ

  5. #4
    Senior Member
    สมัครเมื่อ
    Oct 2012
    โพสต์
    1,522
    Thanks
    2,451
    Thanked 0 Times in 0 Posts
    ขอบคุณครับ

+ ตอบกลับกระทู้

ข้อมูลกระทู้

Users Browsing this Thread

ในขณะนี้มี 1 ท่านดูกระทู้อยู่. (0 สมาชิกและ 1 ผู้เยี่ยมชม)

     

กฎการโพสต์ข้อความ

  • ท่าน ไม่สามารถ ตั้งกระทู้ใหม่ได้
  • ท่าน ไม่สามารถ ตอบกระทู้ได้
  • ท่าน ไม่สามารถ แนบไฟล์ได้
  • ท่าน ไม่สามารถ แก้ไขข้อความโพสต์ได้
  • BB code สถานะ เปิด
  • Smilies สถานะ เปิด
  • [IMG] สถานะ เปิด
  • HTML สถานะ ปิด