+ ตอบกลับกระทู้
สรุปผลการค้นหา 1 ถึง 2 จากทั้งหมด 2
  1. #1
    Administrators รูปส่วนตัว Duckload.us
    สมัครเมื่อ
    Dec 2010
    โพสต์
    126,387
    Thanks
    7
    Thanked 130,974 Times in 58,015 Posts

    Thumbs up [ฝรั่ง]-[x-TaR] 2067 (2020) [พากย์อังกฤษ] • [บรรยายไทย + อังกฤษ]-Blu-ray.AC-3.1080p. [Master]-[Soundtrack บรรยายไทย (แปล)]



    วันที่ออกฉาย : 2 ตุลาคม 2563 ( อเมริกา )
    ผู้กำกับ : Seth Larney ( เซท ลาร์นีย์ )
    ประพันธ์ดนตรีโดย : เค็นเน็ธ แลมพล
    ผู้ผลิต : ลิซา ชาเนซี, เคท โครเซอร์, เจสัน เทย์เลอร์
    บทภาพยนตร์ : Seth Larney ( เซท ลาร์นีย์ ), Dave Paterson ( เดฟ เพเตอร์สัน )
    นำแสดงโดย : Kodi Smit-McPhee, Ryan Kwanten, Sana'a Shaik

    General
    Unique ID : 233747832756608403144270577904730173479 (0xAFDA31EF11BA01A44593AA00D5A2F027)
    Format : Matroska
    Format version : Version 4 / Version 2
    File size : 2.11 GiB
    Duration : 1 h 54 min
    Overall bit rate : 2 636 kb/s
    Movie name : 2067 (2020)
    Encoded date : UTC 2021-04-08 11:06:26
    Writing application : mkvmerge v52.0.0 ('Secret For The Mad') 64-bit
    Writing library : libebml v1.4.1 + libmatroska v1.6.2
    Cover : Yes
    Attachments : THSarabun BoldItalic.ttf / THSarabun Italic.ttf / THSarabun.ttf / THSarabun Bold.ttf / cover.jpg

    Video
    ID : 1
    Format : AVC
    Format/Info : Advanced Video Codec
    Format profile : [email protected]
    Format settings, CABAC : Yes
    Format settings, RefFrames : 4 frames
    Codec ID : V_MPEG4/ISO/AVC
    Duration : 1 h 54 min
    Bit rate : 2 250 kb/s
    Width : 1 904 pixels
    Height : 784 pixels
    Display aspect ratio : 2.40:1
    Frame rate mode : Constant
    Frame rate : 23.976 (24000/1001) FPS
    Color space : YUV
    Chroma subsampling : 4:2:0
    Bit depth : 8 bits
    Scan type : Progressive
    Bits/(Pixel*Frame) : 0.063
    Stream size : 1.80 GiB (85%)
    Title : 2067 (2020)
    Writing library : x264 core 160
    Encoding settings : cabac=1 / ref=4 / deblock=1:-1:-1 / analyse=0x3:0x133 / me=umh / subme=9 / psy=1 / psy_rd=1.00:0.15 / mixed_ref=1 / me_range=24 / chroma_me=1 / trellis=2 / 8x8dct=1 / cqm=0 / deadzone=21,11 / fast_pskip=0 / chroma_qp_offset=-3 / threads=18 / lookahead_threads=1 / sliced_threads=0 / nr=0 / decimate=1 / interlaced=0 / bluray_compat=0 / constrained_intra=0 / bframes=3 / b_pyramid=2 / b_adapt=2 / b_bias=0 / direct=3 / weightb=1 / open_gop=0 / weightp=2 / keyint=250 / keyint_min=23 / scenecut=40 / intra_refresh=0 / rc_lookahead=60 / rc=2pass / mbtree=1 / bitrate=2250 / ratetol=1.0 / qcomp=0.60 / qpmin=0 / qpmax=69 / qpstep=4 / cplxblur=20.0 / qblur=0.5 / vbv_maxrate=31250 / vbv_bufsize=31250 / nal_hrd=none / filler=0 / ip_ratio=1.40 / aq=1:1.00
    Default : Yes
    Forced : No

    Audio
    ID : 2
    Format : AAC
    Format/Info : Advanced Audio Codec
    Format profile : LC
    Codec ID : A_AAC
    Duration : 1 h 54 min
    Bit rate : 384 kb/s
    Channel(s) : 6 channels
    Channel positions : Front: L C R, Side: L R, LFE
    Sampling rate : 48.0 kHz
    Frame rate : 46.875 FPS (1024 SPF)
    Compression mode : Lossy
    Delay relative to video : -43 ms
    Stream size : 314 MiB (15%)
    Title : English AAC (5.1)
    Language : English
    Default : Yes
    Forced : Yes

    Text #1
    ID : 3
    Format : ASS
    Codec ID : S_TEXT/ASS
    Codec ID/Info : Advanced Sub Station Alpha
    Duration : 1 h 44 min
    Bit rate : 142 b/s
    Count of elements : 1245
    Compression mode : Lossless
    Stream size : 109 KiB (0%)
    Title : Thai SSA
    Language : Thai
    Default : Yes
    Forced : No

    Text #2
    ID : 4
    Format : ASS
    Codec ID : S_TEXT/ASS
    Codec ID/Info : Advanced Sub Station Alpha
    Duration : 1 h 44 min
    Bit rate : 78 b/s
    Count of elements : 1245
    Compression mode : Lossless
    Stream size : 60.4 KiB (0%)
    Title : English SSA
    Language : English
    Default : No
    Forced : No





    Download:cornfile
    http://cornfile.com/35o00073i07h
    Download:filecondo
    http://www.filecondo.com/dl.php?f=Ge1c001Lvx5r

  2. The Following User Says Thank You to Duckload.us For This Useful Post:

    noi54 (04-12-2021)

  3. #2
    Senior Member
    สมัครเมื่อ
    Jul 2013
    โพสต์
    2,090
    Thanks
    0
    Thanked 0 Times in 0 Posts
    ขอบคุณครับ

+ ตอบกลับกระทู้

ข้อมูลกระทู้

Users Browsing this Thread

ในขณะนี้มี 1 ท่านดูกระทู้อยู่. (0 สมาชิกและ 1 ผู้เยี่ยมชม)

     

กฎการโพสต์ข้อความ

  • ท่าน ไม่สามารถ ตั้งกระทู้ใหม่ได้
  • ท่าน ไม่สามารถ ตอบกระทู้ได้
  • ท่าน ไม่สามารถ แนบไฟล์ได้
  • ท่าน ไม่สามารถ แก้ไขข้อความโพสต์ได้
  • BB code สถานะ เปิด
  • Smilies สถานะ เปิด
  • [IMG] สถานะ เปิด
  • HTML สถานะ ปิด