+ ตอบกลับกระทู้
สรุปผลการค้นหา 1 ถึง 3 จากทั้งหมด 3
  1. #1
    Administrators รูปส่วนตัว Duckload.us
    สมัครเมื่อ
    Dec 2010
    โพสต์
    126,387
    Thanks
    7
    Thanked 130,975 Times in 58,016 Posts

    Thumbs up [จีน]-[x-TaR] Shock Wave 2 (2020) [พากย์จีน] • [บรรยายไทย+อังกฤษ]-Blu-ray.AC-3.1080p. [Master]-[Soundtrack บรรยายไทย (แปล)]





    General
    Unique ID : 76936922024553800424951444195748778853 (0x39E1831F4056F052AB6F7F5A79D69365)
    Format : Matroska
    Format version : Version 4 / Version 2
    File size : 9.25 GiB
    Duration : 2 h 1 min
    Overall bit rate : 10.9 Mb/s
    Movie name : Shock Wave 2 (2020)
    Encoded date : UTC 2021-04-08 09:11:15
    Writing application : mkvmerge v52.0.0 ('Secret For The Mad') 64-bit
    Writing library : libebml v1.4.1 + libmatroska v1.6.2
    Cover : Yes
    Attachments : THSarabun Italic.ttf / THSarabun.ttf / THSarabun Bold.ttf / THSarabun BoldItalic.ttf / cover.jpg

    Video
    ID : 1
    Format : AVC
    Format/Info : Advanced Video Codec
    Format profile : [email protected]
    Format settings, CABAC : Yes
    Format settings, RefFrames : 3 frames
    Format settings, GOP : M=1, N=30
    Codec ID : V_MPEG4/ISO/AVC
    Duration : 2 h 1 min
    Bit rate : 10.5 Mb/s
    Width : 1 920 pixels
    Height : 804 pixels
    Display aspect ratio : 2.40:1
    Frame rate mode : Constant
    Frame rate : 24.000 FPS
    Color space : YUV
    Chroma subsampling : 4:2:0
    Bit depth : 8 bits
    Scan type : Progressive
    Bits/(Pixel*Frame) : 0.283
    Stream size : 8.87 GiB (96%)
    Title : Shock Wave 2 (2020)
    Default : Yes
    Forced : No

    Audio #1
    ID : 2
    Format : AC-3
    Format/Info : Audio Coding 3
    Format settings, Endianness : Big
    Codec ID : A_AC3
    Duration : 2 h 1 min
    Bit rate mode : Constant
    Bit rate : 128 kb/s
    Channel(s) : 2 channels
    Channel positions : Front: L R
    Sampling rate : 48.0 kHz
    Frame rate : 31.250 FPS (1536 SPF)
    Bit depth : 16 bits
    Compression mode : Lossy
    Stream size : 111 MiB (1%)
    Title : Chinese AC-3 (2.0)
    Language : Chinese
    Service kind : Complete Main
    Default : Yes
    Forced : Yes

    Audio #2
    ID : 3
    Format : AAC
    Format/Info : Advanced Audio Codec
    Format profile : LC
    Codec ID : A_AAC
    Duration : 2 h 1 min
    Bit rate : 317 kb/s
    Channel(s) : 2 channels
    Channel positions : Front: L R
    Sampling rate : 48.0 kHz
    Frame rate : 46.875 FPS (1024 SPF)
    Compression mode : Lossy
    Stream size : 275 MiB (3%)
    Title : Chinese Mandarin AAC (2.0)
    Language : Chinese
    Default : No
    Forced : No

    Text #1
    ID : 4
    Format : ASS
    Codec ID : S_TEXT/ASS
    Codec ID/Info : Advanced Sub Station Alpha
    Duration : 1 h 55 min
    Bit rate : 175 b/s
    Count of elements : 1838
    Compression mode : Lossless
    Stream size : 148 KiB (0%)
    Title : Thai SSA
    Language : Thai
    Default : Yes
    Forced : No

    Text #2
    ID : 5
    Format : ASS
    Codec ID : S_TEXT/ASS
    Codec ID/Info : Advanced Sub Station Alpha
    Duration : 1 h 55 min
    Bit rate : 99 b/s
    Count of elements : 1838
    Compression mode : Lossless
    Stream size : 84.3 KiB (0%)
    Title : English SSA
    Language : English
    Default : No
    Forced : No





    9.25 GB
    Download:cornfile
    http://cornfile.com/rsms286foqpq
    Download:filecondo
    http://www.filecondo.com/dl.php?f=ea5f4c1Lvxfd

  2. #2
    Senior Member
    สมัครเมื่อ
    Jul 2013
    โพสต์
    2,090
    Thanks
    0
    Thanked 0 Times in 0 Posts
    ป๋าหลิวกลับมาแล้ว ภาคแรกก็สนุกมา ภาคนี้ต้องลองดู

  3. #3
    Senior Member
    สมัครเมื่อ
    Jun 2012
    โพสต์
    1,374
    Thanks
    0
    Thanked 1 Time in 1 Post
    ขอบคุณครับ

+ ตอบกลับกระทู้

ข้อมูลกระทู้

Users Browsing this Thread

ในขณะนี้มี 1 ท่านดูกระทู้อยู่. (0 สมาชิกและ 1 ผู้เยี่ยมชม)

     

กฎการโพสต์ข้อความ

  • ท่าน ไม่สามารถ ตั้งกระทู้ใหม่ได้
  • ท่าน ไม่สามารถ ตอบกระทู้ได้
  • ท่าน ไม่สามารถ แนบไฟล์ได้
  • ท่าน ไม่สามารถ แก้ไขข้อความโพสต์ได้
  • BB code สถานะ เปิด
  • Smilies สถานะ เปิด
  • [IMG] สถานะ เปิด
  • HTML สถานะ ปิด