+ ตอบกลับกระทู้
สรุปผลการค้นหา 1 ถึง 2 จากทั้งหมด 2
  1. #1
    Administrators รูปส่วนตัว Duckload.us
    สมัครเมื่อ
    Dec 2010
    โพสต์
    126,530
    Thanks
    7
    Thanked 131,173 Times in 58,087 Posts

    Thumbs up [จีน]-Peak Rescue (Dian feng ying jiu) (2019) ยุทธการสุริยะทมิฬ-WEB-DL.H.264.1080p. [Master]-[พากย์ไทยมาสเตอร์ ไม่มีบรรยาย]



    เรื่องย่อ : บริษัทรักษาความปลอดภัยระดับประเทศของจีนดำเนินการส่ ง “ฮันห่าว” บอดี้การ์ดมือดีเพื่อทำหน้าที่ในการปกป้อง “อาริเอส” ลูกค้าสาวผู้มั่งคั่ง

    Format : Matroska
    Format version : Version 2
    File size : 2.82 GiB
    Duration : 1 h 11 min
    Overall bit rate : 5 629 kb/s
    Encoded date : UTC 2021-04-09 08:28:31
    Writing application : DVDFab 12.0.2.3
    Writing library : libebml v1.3.4 + libmatroska v1.4.5

    Video
    ID : 1
    Format : AVC
    Format/Info : Advanced Video Codec
    Format profile : [email protected]
    Format settings : CABAC / 1 Ref Frames
    Format settings, CABAC : Yes
    Format settings, Reference frames : 1 frame
    Format settings, GOP : M=1, N=24
    Codec ID : V_MPEG4/ISO/AVC
    Duration : 1 h 11 min
    Bit rate mode : Constant
    Bit rate : 5 499 kb/s
    Nominal bit rate : 9 129 kb/s
    Width : 1 920 pixels
    Height : 1 080 pixels
    Display aspect ratio : 16:9
    Frame rate mode : Constant
    Frame rate : 23.976 (24000/1001) FPS
    Color space : YUV
    Chroma subsampling : 4:2:0
    Bit depth : 8 bits
    Scan type : Progressive
    Bits/(Pixel*Frame) : 0.111
    Stream size : 2.75 GiB (98%)
    Default : Yes
    Forced : No
    Color range : Limited
    Color primaries : BT.709
    Transfer characteristics : BT.709
    Matrix coefficients : BT.709

    Audio
    ID : 2
    Format : AAC LC
    Format/Info : Advanced Audio Codec Low Complexity
    Codec ID : A_AAC-2
    Duration : 1 h 11 min
    Bit rate : 128 kb/s
    Channel(s) : 2 channels
    Channel layout : L R
    Sampling rate : 44.1 kHz
    Frame rate : 43.066 FPS (1024 SPF)
    Compression mode : Lossy
    Stream size : 65.6 MiB (2%)
    Default : Yes
    Forced : No








    Download:cornfile
    http://cornfile.com/cnfnduxebu7k
    Download:filecondo
    http://www.filecondo.com/dl.php?f=z227c51Lvxds

  2. The Following User Says Thank You to Duckload.us For This Useful Post:

    noi54 (04-12-2021)

  3. #2
    Senior Member
    สมัครเมื่อ
    Jul 2013
    โพสต์
    2,118
    Thanks
    0
    Thanked 0 Times in 0 Posts
    ขอบคุณครับ

+ ตอบกลับกระทู้

ข้อมูลกระทู้

Users Browsing this Thread

ในขณะนี้มี 1 ท่านดูกระทู้อยู่. (0 สมาชิกและ 1 ผู้เยี่ยมชม)

     

กฎการโพสต์ข้อความ

  • ท่าน ไม่สามารถ ตั้งกระทู้ใหม่ได้
  • ท่าน ไม่สามารถ ตอบกระทู้ได้
  • ท่าน ไม่สามารถ แนบไฟล์ได้
  • ท่าน ไม่สามารถ แก้ไขข้อความโพสต์ได้
  • BB code สถานะ เปิด
  • Smilies สถานะ เปิด
  • [IMG] สถานะ เปิด
  • HTML สถานะ ปิด