+ ตอบกลับกระทู้
สรุปผลการค้นหา 1 ถึง 3 จากทั้งหมด 3
  1. #1
    Administrators รูปส่วนตัว Duckload.us
    สมัครเมื่อ
    Dec 2010
    โพสต์
    127,911
    Thanks
    7
    Thanked 132,098 Times in 58,486 Posts

    Thumbs up [ฝรั่ง]-Zack Snyders Justice League 4K-Encode.Other.2160p. [Modified]-[พากย์ไทย บรรยายไทย]



    เรื่องย่อ
    Justice League เป็นโปรเจกต์หนังรวมฮีโร่ฝั่ง DC ที่ออกฉายในปี 2017 ในตอนแรกหนังเรื่องนี้กำกับโดย Zack Snyder แต่มีเรื่องน่าเศร้าเกิดขึ้นระหว่างถ่ายทำ Autumn Snyder ลูกสาวของเขาเสียชีวิต ทำให้เข้าโศกเศร้าเกินไปที่จะเดินหน้าโปรเจกต์ต่อได้ จึงส่งไม้ต่อให้เพื่อนของเขา Joss Whedon ผู้กำกับมากฝีมือคนหนึ่ง และเป็นผู้กำกับ The Avengers หนังรวมฮีโร่ฝั่ง Marvel 2 ภาคแรกอีกด้วย แต่ผลตอบรับของหนังเรียกว่าค่อนข้างแย่จนทำให้จักรวา ลฮีโร่ DC เกิดอาการเป๋ไปช่วงใหญ่ๆ เลย หลังจาก Zack Snyder เยียวยาจากความเศร้า เขาก็เริ่มแย้มอยากสานต่อโปรเจกต์ Justice League ของตัวเองให้สำเร็จ จนสุดท้ายผู้บริหาร Warner ก็ยอมให้เข้าทำ พร้อมเติมงบมาให้ถ่ายทำฉากเพิ่มเติมพร้อมทำ Post Production (ระหว่างนั้นมีการเปิดเผยว่า Zack Snyder ไม่เคยดู Justice League เวอร์ชัน Joss Whedon เลยเพราะเมียกับเพื่อนรัก Christopher Nolan ห้ามไว้) และในที่สุด Justice League เวอร์ชัน Zack Snyder ก็เสร็จสมบูรณ์เป็นหนังความยาว 4 ชม. ที่ถูกแบ่งเป็น 6 Chapter ถ่ายทำด้วยอัตราส่วน 4:3 ปล่อยให้ชมทางสตรีมมิ่ง HBO Max และ HBO GO ในประเทศไทย

    General
    Unique ID : 61847504596431016230952071214962404596 (0x2E87656762B800AFFB408572458D6CF4)
    Complete name : O:BitZack Snyders Justice League Snyders Cut 4K.mkv
    Format : Matroska
    Format version : Version 4 / Version 2
    File size : 32.3 GiB
    Duration : 4h 2mn
    Overall bit rate : 19.1 Mbps
    Movie name : Zack Snyders Justice League Snyders Cut
    Encoded date : UTC 2021-04-11 09:00:31
    Writing application : mkvmerge v56.1.0 ('My Friend') 64-bit
    Writing library : libebml v1.4.2 + libmatroska v1.6.4
    DURATION : 04:00:32.625000000
    NUMBER_OF_FRAMES : 2799
    NUMBER_OF_BYTES : 76563
    _STATISTICS_WRITING_APP : mkvmerge v56.1.0 ('My Friend') 64-bit
    _STATISTICS_WRITING_DATE_UTC : 2021-04-11 09:00:31
    _STATISTICS_TAGS : BPS DURATION NUMBER_OF_FRAMES NUMBER_OF_BYTES

    Video
    ID : 1
    Format : HEVC
    Format/Info : High Efficiency Video Coding
    Format profile : Main [email protected]
    Codec ID : V_MPEGH/ISO/HEVC
    Duration : 4h 2mn
    Bit rate : 17.5 Mbps
    Width : 3 840 pixels
    Height : 2 160 pixels
    Display aspect ratio : 16:9
    Frame rate mode : Constant
    Frame rate : 23.976 fps
    Color space : YUV
    Chroma subsampling : 4:2:0
    Bit depth : 10 bits
    Bits/(Pixel*Frame) : 0.088
    Stream size : 29.6 GiB (92%)
    Writing library : x265 3.4hy:[Linux][GCC 7.5.0][64 bit] 10bit
    Encoding settings : cpuid=1111039 / frame-threads=1 / wpp / no-pmode / no-pme / no-psnr / no-ssim / log-level=2 / input-csp=1 / input-res=3840x2160 / interlace=0 / total-frames=0 / level-idc=0 / high-tier=1 / uhd-bd=0 / ref=4 / no-allow-non-conformance / repeat-headers / annexb / no-aud / no-hrd / info / hash=0 / no-temporal-layers / no-open-gop / min-keyint=96 / keyint=96 / gop-lookahead=0 / bframes=3 / b-adapt=2 / b-pyramid / bframe-bias=0 / rc-lookahead=25 / lookahead-slices=4 / scenecut=40 / hist-scenecut=0 / radl=0 / no-splice / no-intra-refresh / ctu=64 / min-cu-size=8 / rect / no-amp / max-tu-size=32 / tu-inter-depth=1 / tu-intra-depth=1 / limit-tu=0 / rdoq-level=2 / dynamic-rd=0.00 / no-ssim-rd / signh-i-d-e / no-tskip / nr-intra=0 / nr-inter=0 / no-constrained-intra / strong-intra-smoothing / max-merge=3 / limit-refs=3 / limit-modes / me=3 / subme=3 / merange=57 / temporal-mvp / no-frame-dup / no-hme / weightp / no-weightb / no-analyze-src-pics / deblock=0:0 / sao / no-sao-non-deblock / rd=4 / selective-sao=4 / no-early-skip / rskip / no-fast-intra / no-tskip-fast / no-cu-lossless / no-b-intra / no-splitrd-skip / rdpenalty=0 / psy-rd=2.00 / psy-rdoq=1.00 / no-rd-refine / no-lossless / cbqpoffs=0 / crqpoffs=0 / rc=abr / bitrate=18000 / qcomp=0.60 / qpstep=4 / stats-write=0 / stats-read=2 / cplxblur=20.0 / qblur=0.5 / vbv-maxrate=24500 / vbv-bufsize=24500 / vbv-init=0.6 / vbv-end=0.6 / vbv-end-fr-adj=0.0 / ipratio=1.40 / pbratio=1.30 / aq-mode=2 / aq-strength=1.00 / cutree / zone-count=0 / no-strict-cbr / qg-size=32 / no-rc-grain / qpmax=69 / qpmin=0 / no-const-vbv / sar=0 / overscan=0 / videoformat=5 / range=0 / colorprim=9 / transfer=16 / colormatrix=9 / chromaloc=0 / display-window=0 / master-display=G(13250,34500)B(7500,3000)R(34000,16000)WP (15635,16450)L(10000000,1) / cll=597,122 / min-luma=0 / max-luma=1023 / log2-max-poc-lsb=8 / vui-timing-info / vui-hrd-info / no-concatenation / slices=1 / no-opt-qp-pps / no-opt-ref-list-length-pps / no-multi-pass-opt-rps / scenecut-bias=0.05 / hist-threshold=0.01 / no-opt-cu-delta-qp / no-aq-motion / hdr10 / no-hdr10-opt / no-dhdr10-opt / no-idr-recovery-sei / analysis-reuse-level=0 / analysis-save-reuse-level=0 / analysis-load-reuse-level=0 / scale-factor=0 / refine-intra=0 / refine-inter=0 / refine-mv=1 / refine-ctu-distortion=0 / no-limit-sao / ctu-info=0 / no-lowpass-dct / refine-analysis-type=0 / copy-pic=1 / max-ausize-factor=1.0 / no-dynamic-refine / no-single-sei / no-hevc-aq / no-svt / no-field / qp-adaptation-range=1.00 / no-scenecut-aware-qpconformance-window-offsets / right=0 / bottom=0 / decoder-max-rate=0
    Default : Yes
    Forced : No

    Audio #1
    ID : 2
    Format : AC-3
    Format/Info : Audio Coding 3
    Mode extension : CM (complete main)
    Format settings, Endianness : Big
    Codec ID : A_AC3
    Duration : 4h 2mn
    Bit rate mode : Constant
    Bit rate : 448 Kbps
    Channel(s) : 2 channels
    Channel positions : Front: L R
    Sampling rate : 48.0 KHz
    Bit depth : 16 bits
    Compression mode : Lossy
    Stream size : 776 MiB (2%)
    Language : Thai
    Default : Yes
    Forced : No

    Audio #2
    ID : 3
    Format : E-AC-3
    Format/Info : Audio Coding 3
    Format settings, Endianness : Big
    Codec ID : A_EAC3
    Duration : 4h 2mn
    Bit rate mode : Constant
    Bit rate : 768 Kbps
    Channel(s) : 6 channels
    Channel positions : Front: L C R, Side: L R, LFE
    Sampling rate : 48.0 KHz
    Compression mode : Lossy
    Stream size : 1.30 GiB (4%)
    Language : English
    Default : No
    Forced : No

    Text #1
    ID : 4
    Format : PGS
    Muxing mode : zlib
    Codec ID : S_HDMV/PGS
    Codec ID/Info : The same subtitle format used on BDs/HD-DVDs
    Default : Yes
    Forced : No

    Text #2
    ID : 5
    Format : UTF-8
    Codec ID : S_TEXT/UTF8
    Codec ID/Info : UTF-8 Plain Text
    Language : English
    Default : No
    Forced : No



    http://cornfile.com/2j7da94yryoq
    http://www.filecondo.com/dl.php?f=Pa367b1LvE7J

  2. #2
    Senior Member
    สมัครเมื่อ
    Jul 2012
    โพสต์
    7,536
    Thanks
    0
    Thanked 0 Times in 0 Posts
    ขอบคุณมากจ้า

  3. #3
    Senior Member
    สมัครเมื่อ
    Jun 2012
    โพสต์
    1,380
    Thanks
    0
    Thanked 1 Time in 1 Post
    ขอบคุณมากครับ

+ ตอบกลับกระทู้

ข้อมูลกระทู้

Users Browsing this Thread

ในขณะนี้มี 1 ท่านดูกระทู้อยู่. (0 สมาชิกและ 1 ผู้เยี่ยมชม)

     

กฎการโพสต์ข้อความ

  • ท่าน ไม่สามารถ ตั้งกระทู้ใหม่ได้
  • ท่าน ไม่สามารถ ตอบกระทู้ได้
  • ท่าน ไม่สามารถ แนบไฟล์ได้
  • ท่าน ไม่สามารถ แก้ไขข้อความโพสต์ได้
  • BB code สถานะ เปิด
  • Smilies สถานะ เปิด
  • [IMG] สถานะ เปิด
  • HTML สถานะ ปิด