+ ตอบกลับกระทู้
สรุปผลการค้นหา 1 ถึง 3 จากทั้งหมด 3
  1. #1
    Administrators รูปส่วนตัว Duckload.us
    สมัครเมื่อ
    Dec 2010
    โพสต์
    126,656
    Thanks
    7
    Thanked 131,288 Times in 58,134 Posts

    Thumbs up [ญี่ปุ่น]-[HI-DEF 1080P คมชัด] ALTERED CARBON RESLEEVED (2020) - อัลเทอร์ด คาร์บอน รีสลีฟ [เสียงอังกฤษ ENG 5.1+เสียงญี่ปุ่น JAPANESE 5.1+เสียงไทย THAI 5.1][ซับไทย PGS คมชัด Netflix]



    Code:
    Altered Carbon is an American cyberpunk television series created by Laeta Kalogridis and based on the 2002 novel of the same title by English author Richard K. Morgan.[1] In a world where consciousness can be transferred to different bodies, Takeshi Kovacs, a former soldier turned investigator, must solve a murder. The first season consists of ten episodes and premiered on Netflix on February 2, 2018.[2] On July 27, 2018, the series was renewed for a second season of eight episodes,[3] which was released on February 27, 2020, with an anime film set before the first season released on March 19, 2020. Though the series received generally positive reviews, it was canceled after two seasons
    
    Video
    ID                                       : 1
    Format                                   : AVC
    Format/Info                              : Advanced Video Codec
    Format profile                           : [email protected]
    Format settings                          : CABAC / 3 Ref Frames
    Format settings, CABAC                   : Yes
    Format settings, Reference frames        : 3 frames
    Codec ID                                 : V_MPEG4/ISO/AVC
    Duration                                 : 1 h 14 min
    Bit rate mode                            : Variable
    Bit rate                                 : 7 500 kb/s
    Maximum bit rate                         : 11.2 Mb/s
    Width                                    : 1 920 pixels
    Height                                   : 1 080 pixels
    Display aspect ratio                     : 16:9
    Frame rate mode                          : Constant
    Frame rate                               : 24.000 FPS
    Color space                              : YUV
    Chroma subsampling                       : 4:2:0
    Bit depth                                : 8 bits
    Scan type                                : Progressive
    Bits/(Pixel*Frame)                       : 0.151
    Stream size                              : 3.83 GiB (74%)
    Title                                    : ALTERED CARBON RESLEEVED (2020) - อัลเทอร์ด คาร์บอน รีสลีฟ WEB-DL 1080P @HENRYKAI - เสียงไทย
    Writing library                          : x264 core 148 r2717 0d2410d
    Encoding settings                        : cabac=1 / ref=3 / deblock=1:0:0 / analyse=0x1:0x111 / me=umh / subme=10 / psy=1 / psy_rd=1.00:0.00 / mixed_ref=1 / me_range=24 / chroma_me=1 / trellis=2 / 8x8dct=0 / cqm=0 / deadzone=21,11 / fast_pskip=1 / chroma_qp_offset=-2 / threads=6 / lookahead_threads=1 / sliced_threads=0 / nr=0 / decimate=1 / interlaced=0 / bluray_compat=0 / stitchable=1 / constrained_intra=0 / bframes=2 / b_pyramid=0 / b_adapt=2 / b_bias=0 / direct=3 / weightb=1 / open_gop=0 / weightp=2 / keyint=250 / keyint_min=24 / scenecut=0 / intra_refresh=0 / rc_lookahead=48 / rc=2pass / mbtree=1 / bitrate=7500 / ratetol=1.0 / qcomp=0.50 / qpmin=6 / qpmax=51 / qpstep=4 / cplxblur=20.0 / qblur=0.5 / vbv_maxrate=11250 / vbv_bufsize=15000 / nal_hrd=vbr / filler=0 / ip_ratio=1.40 / aq=1:1.00
    Default                                  : Yes
    Forced                                   : No
    
    Audio #1
    ID                                       : 2
    Format                                   : E-AC-3
    Format/Info                              : Enhanced AC-3
    Commercial name                          : Dolby Digital Plus
    Codec ID                                 : A_EAC3
    Duration                                 : 1 h 14 min
    Bit rate mode                            : Constant
    Bit rate                                 : 640 kb/s
    Channel(s)                               : 6 channels
    Channel layout                           : L R C LFE Ls Rs
    Sampling rate                            : 48.0 kHz
    Frame rate                               : 31.250 FPS (1536 SPF)
    Compression mode                         : Lossy
    Stream size                              : 342 MiB (6%)
    Title                                    : Japanese
    Language                                 : Japanese
    Service kind                             : Complete Main
    Default                                  : No
    Forced                                   : No
    
    Audio #2
    ID                                       : 3
    Format                                   : E-AC-3
    Format/Info                              : Enhanced AC-3
    Commercial name                          : Dolby Digital Plus
    Codec ID                                 : A_EAC3
    Duration                                 : 1 h 14 min
    Bit rate mode                            : Constant
    Bit rate                                 : 640 kb/s
    Channel(s)                               : 6 channels
    Channel layout                           : L R C LFE Ls Rs
    Sampling rate                            : 48.0 kHz
    Frame rate                               : 31.250 FPS (1536 SPF)
    Compression mode                         : Lossy
    Stream size                              : 342 MiB (6%)
    Title                                    : Japanese (Audio Des--cription)
    Language                                 : Japanese
    Service kind                             : Complete Main
    Default                                  : No
    Forced                                   : No
    
    Audio #3
    ID                                       : 4
    Format                                   : E-AC-3
    Format/Info                              : Enhanced AC-3
    Commercial name                          : Dolby Digital Plus
    Codec ID                                 : A_EAC3
    Duration                                 : 1 h 14 min
    Bit rate mode                            : Constant
    Bit rate                                 : 640 kb/s
    Channel(s)                               : 6 channels
    Channel layout                           : L R C LFE Ls Rs
    Sampling rate                            : 48.0 kHz
    Frame rate                               : 31.250 FPS (1536 SPF)
    Compression mode                         : Lossy
    Stream size                              : 342 MiB (6%)
    Title                                    : English
    Language                                 : English
    Service kind                             : Complete Main
    Default                                  : No
    Forced                                   : No
    
    Audio #4
    ID                                       : 5
    Format                                   : E-AC-3
    Format/Info                              : Enhanced AC-3
    Commercial name                          : Dolby Digital Plus
    Codec ID                                 : A_EAC3
    Duration                                 : 1 h 14 min
    Bit rate mode                            : Constant
    Bit rate                                 : 640 kb/s
    Channel(s)                               : 6 channels
    Channel layout                           : L R C LFE Ls Rs
    Sampling rate                            : 48.0 kHz
    Frame rate                               : 31.250 FPS (1536 SPF)
    Compression mode                         : Lossy
    Stream size                              : 342 MiB (6%)
    Title                                    : Thai
    Language                                 : Thai
    Service kind                             : Complete Main
    Default                                  : Yes
    Forced                                   : No
    
    Text #1
    ID                                       : 6
    Format                                   : PGS
    Muxing mode                              : zlib
    Codec ID                                 : S_HDMV/PGS
    Codec ID/Info                            : Picture based subtitle format used on BDs/HD-DVDs
    Duration                                 : 1 h 13 min
    Bit rate                                 : 26.3 kb/s
    Count of elements                        : 2052
    Stream size                              : 13.8 MiB (0%)
    Title                                    : JAPANESE PGS MODIFY @HENRYKAI
    Language                                 : Japanese
    Default                                  : Yes
    Forced                                   : No
    
    Text #2
    ID                                       : 7
    Format                                   : PGS
    Muxing mode                              : zlib
    Codec ID                                 : S_HDMV/PGS
    Codec ID/Info                            : Picture based subtitle format used on BDs/HD-DVDs
    Duration                                 : 1 h 13 min
    Bit rate                                 : 163 b/s
    Count of elements                        : 22
    Stream size                              : 87.6 KiB (0%)
    Title                                    : JAPANESE PGS MODIFY @HENRYKAI
    Language                                 : Japanese
    Default                                  : No
    Forced                                   : No
    
    Text #3
    ID                                       : 8
    Format                                   : UTF-8
    Codec ID                                 : S_TEXT/UTF8
    Codec ID/Info                            : UTF-8 Plain Text
    Duration                                 : 1 h 13 min
    Bit rate                                 : 0 b/s
    Count of elements                        : 11
    Stream size                              : 280 Bytes (0%)
    Title                                    : Japanese [Forced]
    Language                                 : Japanese
    Default                                  : No
    Forced                                   : No
    
    Text #4
    ID                                       : 9
    Format                                   : UTF-8
    Codec ID                                 : S_TEXT/UTF8
    Codec ID/Info                            : UTF-8 Plain Text
    Duration                                 : 1 h 13 min
    Bit rate                                 : 72 b/s
    Count of elements                        : 1026
    Stream size                              : 38.8 KiB (0%)
    Title                                    : Japanese [Full]
    Language                                 : Japanese
    Default                                  : No
    Forced                                   : No
    
    Text #5
    ID                                       : 10
    Format                                   : PGS
    Muxing mode                              : zlib
    Codec ID                                 : S_HDMV/PGS
    Codec ID/Info                            : Picture based subtitle format used on BDs/HD-DVDs
    Duration                                 : 1 h 12 min
    Bit rate                                 : 36.1 kb/s
    Count of elements                        : 1400
    Stream size                              : 18.9 MiB (0%)
    Title                                    : ENG PGS MODIFY @HENRYKAI
    Language                                 : English
    Default                                  : No
    Forced                                   : No
    
    Text #6
    ID                                       : 11
    Format                                   : PGS
    Muxing mode                              : zlib
    Codec ID                                 : S_HDMV/PGS
    Codec ID/Info                            : Picture based subtitle format used on BDs/HD-DVDs
    Duration                                 : 1 h 12 min
    Bit rate                                 : 282 b/s
    Count of elements                        : 10
    Stream size                              : 151 KiB (0%)
    Title                                    : ENG PGS MODIFY @HENRYKAI
    Language                                 : English
    Default                                  : No
    Forced                                   : No
    
    Text #7
    ID                                       : 12
    Format                                   : UTF-8
    Codec ID                                 : S_TEXT/UTF8
    Codec ID/Info                            : UTF-8 Plain Text
    Duration                                 : 1 h 12 min
    Bit rate                                 : 0 b/s
    Count of elements                        : 5
    Stream size                              : 122 Bytes (0%)
    Title                                    : English [Forced]
    Language                                 : English
    Default                                  : No
    Forced                                   : No
    
    Text #8
    ID                                       : 13
    Format                                   : UTF-8
    Codec ID                                 : S_TEXT/UTF8
    Codec ID/Info                            : UTF-8 Plain Text
    Duration                                 : 1 h 12 min
    Bit rate                                 : 38 b/s
    Count of elements                        : 700
    Stream size                              : 20.4 KiB (0%)
    Title                                    : English [Full]
    Language                                 : English
    Default                                  : No
    Forced                                   : No
    
    Text #9
    ID                                       : 14
    Format                                   : PGS
    Muxing mode                              : zlib
    Codec ID                                 : S_HDMV/PGS
    Codec ID/Info                            : Picture based subtitle format used on BDs/HD-DVDs
    Duration                                 : 1 h 13 min
    Bit rate                                 : 35.3 kb/s
    Count of elements                        : 1424
    Stream size                              : 18.5 MiB (0%)
    Title                                    : THAI PGS MODIFY @HENRYKAI
    Language                                 : Thai
    Default                                  : No
    Forced                                   : No
    
    Text #10
    ID                                       : 15
    Format                                   : PGS
    Muxing mode                              : zlib
    Codec ID                                 : S_HDMV/PGS
    Codec ID/Info                            : Picture based subtitle format used on BDs/HD-DVDs
    Duration                                 : 1 h 13 min
    Bit rate                                 : 715 b/s
    Count of elements                        : 38
    Stream size                              : 383 KiB (0%)
    Title                                    : THAI PGS MODIFY @HENRYKAI
    Language                                 : Thai
    Default                                  : No
    Forced                                   : No
    
    Text #11
    ID                                       : 16
    Format                                   : UTF-8
    Codec ID                                 : S_TEXT/UTF8
    Codec ID/Info                            : UTF-8 Plain Text
    Duration                                 : 1 h 13 min
    Bit rate                                 : 1 b/s
    Count of elements                        : 19
    Stream size                              : 886 Bytes (0%)
    Title                                    : Thai [Forced]
    Language                                 : Thai
    Default                                  : No
    Forced                                   : No
    
    Text #12
    ID                                       : 17
    Format                                   : UTF-8
    Codec ID                                 : S_TEXT/UTF8
    Codec ID/Info                            : UTF-8 Plain Text
    Duration                                 : 1 h 13 min
    Bit rate                                 : 89 b/s
    Count of elements                        : 712
    Stream size                              : 48.1 KiB (0%)
    Title                                    : Thai [Full]
    Language                                 : Thai
    Default                                  : No
    Forced                                   : No
















    Download:cornfile
    http://cornfile.com/bmeb8o1qwdz9
    Download:filecondo
    http://www.filecondo.com/dl.php?f=859af21LxEmK

  2. #2
    Senior Member
    สมัครเมื่อ
    Jul 2013
    โพสต์
    2,141
    Thanks
    0
    Thanked 0 Times in 0 Posts
    ขอบคุณครับ

  3. #3
    Senior Member
    สมัครเมื่อ
    Jul 2012
    โพสต์
    7,485
    Thanks
    0
    Thanked 0 Times in 0 Posts
    ขอบคุณมากจ้า

+ ตอบกลับกระทู้

ข้อมูลกระทู้

Users Browsing this Thread

ในขณะนี้มี 1 ท่านดูกระทู้อยู่. (0 สมาชิกและ 1 ผู้เยี่ยมชม)

     

กฎการโพสต์ข้อความ

  • ท่าน ไม่สามารถ ตั้งกระทู้ใหม่ได้
  • ท่าน ไม่สามารถ ตอบกระทู้ได้
  • ท่าน ไม่สามารถ แนบไฟล์ได้
  • ท่าน ไม่สามารถ แก้ไขข้อความโพสต์ได้
  • BB code สถานะ เปิด
  • Smilies สถานะ เปิด
  • [IMG] สถานะ เปิด
  • HTML สถานะ ปิด