+ ตอบกลับกระทู้
สรุปผลการค้นหา 1 ถึง 4 จากทั้งหมด 4
  1. #1
    Administrators รูปส่วนตัว Duckload.us
    สมัครเมื่อ
    Dec 2010
    โพสต์
    126,469
    Thanks
    7
    Thanked 131,131 Times in 58,067 Posts

    Angry [ฝรั่ง]-The Lord Of The Rings (2001-2003) อภินิหารแหวนครองพิภพ ภาค 1-3 (Extended Edition - ตัวเต็มไม่ตัด) [ไทย 5.1 - อังกฤษ TrueHD Atmos 7.1]-Encode.H.265.1080p. [Modified]-[พากย์ไทย บรรยายไทย]




    เรื่องย่อ
    ในมัชฌิมโลก ในยุคก่อนประวัติศาสตร์ ลอร์ดผู้หนึ่งได้รวบรวมพลังแห่งความชั่วร้ายทุกอย่าง รอบตัวเขาโดยหวังว่าสักวันหนึ่งจะทำลายล้างอารยธรรมท ี่มีอยู่ทุกหนแห่งให้ราบคาบ เขายังขาดอีกเพียงสิ่งเดียวคือ แหวนวงหนึ่งที่หายไปซึ่งหากได้กลับคืนมา เขาจะสามารถพลิกโลกให้กลับสู่ยุคมืดอีกครั้ง แต่โชคชะตาได้ลิขิต ให้มีสิ่งมีชีวิตเพียงผู้เดียวเท่านั้นที่สามารถจะหา แหวนวงนี้ได้พบ ซึ่งผู้นั้นคือ ฮ็อบบิทหนุ่มที่ชื่อ โฟรโด แบ็กกินส์ เขาจะสามารถช่วยปกป้องให้อารยธรรมของโลกดำเนินสืบต่อ ไปได้หรือไม่?!!!


    General
    Complete name : The.Lord.of.the.Rings.2001.Extended.Blu-ray.1080p.TrueHD.7.1.Atmos.x265.mkv
    Format : Matroska
    Format version : Version 4
    File size : 9.17 GiB
    Duration : 3 h 48 min
    Overall bit rate mode : Variable
    Overall bit rate : 5 755 kb/s
    Movie name : The.Lord.of.the.Rings.2001.Extended.Blu-ray.1080p.TrueHD.7.1.Atmos.x265 - [email protected]
    Encoded date : UTC 2021-04-24 03:19:57
    Writing application : mkvmerge v45.0.0 ('Heaven in Pennies') 64-bit
    Writing library : libebml v1.3.10 + libmatroska v1.5.2
    Attachments : The Lord of the Rings 1.jpg

    Video
    ID : 1
    Format : HEVC
    Format/Info : High Efficiency Video Coding
    Format profile : Main [email protected]@Main
    Codec ID : V_MPEGH/ISO/HEVC
    Duration : 3 h 48 min
    Bit rate : 2 001 kb/s
    Width : 1 920 pixels
    Height : 800 pixels
    Display aspect ratio : 2.40:1
    Frame rate mode : Constant
    Frame rate : 23.976 (24000/1001) FPS
    Color space : YUV
    Chroma subsampling : 4:2:0
    Bit depth : 10 bits
    Bits/(Pixel*Frame) : 0.054
    Stream size : 3.19 GiB (35%)
    Writing library : x265 3.3+4-siambit.me-30eb4de83092:[Linux][GCC 8.3.1][64 bit] 10bit
    Encoding settings : cpuid=1111039 / frame-threads=4 / wpp / no-pmode / no-pme / no-psnr / no-ssim / log-level=2 / input-csp=1 / input-res=1920x800 / interlace=0 / total-frames=0 / level-idc=0 / high-tier=1 / uhd-bd=0 / ref=4 / no-allow-non-conformance / no-repeat-headers / annexb / no-aud / no-hrd / info / hash=0 / no-temporal-layers / open-gop / min-keyint=23 / keyint=250 / gop-lookahead=0 / bframes=4 / b-adapt=2 / b-pyramid / bframe-bias=0 / rc-lookahead=25 / lookahead-slices=4 / scenecut=40 / hist-scenecut=0 / radl=0 / no-splice / no-intra-refresh / ctu=64 / min-cu-size=8 / rect / no-amp / max-tu-size=32 / tu-inter-depth=1 / tu-intra-depth=1 / limit-tu=0 / rdoq-level=2 / dynamic-rd=0.00 / no-ssim-rd / signh-i-d-e / no-tskip / nr-intra=0 / nr-inter=0 / no-constrained-intra / strong-intra-smoothing / max-merge=3 / limit-refs=3 / limit-modes / me=3 / subme=3 / merange=57 / temporal-mvp / no-frame-dup / no-hme / weightp / no-weightb / no-analyze-src-pics / deblock=0:0 / no-sao / no-sao-non-deblock / rd=4 / selective-sao=0 / no-early-skip / rskip / no-fast-intra / no-tskip-fast / no-cu-lossless / no-b-intra / no-splitrd-skip / rdpenalty=0 / psy-rd=2.00 / psy-rdoq=1.00 / no-rd-refine / no-lossless / cbqpoffs=0 / crqpoffs=0 / rc=abr / bitrate=2000 / qcomp=0.60 / qpstep=4 / stats-write=0 / stats-read=2 / cplxblur=20.0 / qblur=0.5 / ipratio=1.40 / pbratio=1.30 / aq-mode=3 / aq-strength=1.00 / cutree / zone-count=0 / no-strict-cbr / qg-size=32 / no-rc-grain / qpmax=69 / qpmin=0 / no-const-vbv / sar=1 / overscan=0 / videoformat=5 / range=0 / colorprim=2 / transfer=2 / colormatrix=2 / chromaloc=0 / display-window=0 / cll=0,0 / min-luma=0 / max-luma=1023 / log2-max-poc-lsb=8 / vui-timing-info / vui-hrd-info / slices=1 / no-opt-qp-pps / no-opt-ref-list-length-pps / no-multi-pass-opt-rps / scenecut-bias=0.05 / hist-threshold=0.01 / no-opt-cu-delta-qp / no-aq-motion / no-hdr10 / no-hdr10-opt / no-dhdr10-opt / no-idr-recovery-sei / analysis-reuse-level=0 / analysis-save-reuse-level=0 / analysis-load-reuse-level=0 / scale-factor=0 / refine-intra=0 / refine-inter=0 / refine-mv=1 / refine-ctu-distortion=0 / no-limit-sao / ctu-info=0 / no-lowpass-dct / refine-analysis-type=0 / copy-pic=1 / max-ausize-factor=1.0 / no-dynamic-refine / no-single-sei / no-hevc-aq / no-svt / no-field / qp-adaptation-range=1.00 / no-scenecut-aware-qpconformance-window-offsets / right=0 / bottom=0
    Language : English
    Default : Yes
    Forced : No

    Audio #1
    ID : 2
    Format : AC-3
    Format/Info : Audio Coding 3
    Commercial name : Dolby Digital
    Codec ID : A_AC3
    Duration : 3 h 48 min
    Bit rate mode : Constant
    Bit rate : 640 kb/s
    Channel(s) : 6 channels
    Channel layout : L R C LFE Ls Rs
    Sampling rate : 48.0 kHz
    Frame rate : 31.250 FPS (1536 SPF)
    Bit depth : 16 bits
    Compression mode : Lossy
    Stream size : 1.02 GiB (11%)
    Title : Thai AC-3
    Language : Thai
    Service kind : Complete Main
    Default : No
    Forced : No

    Audio #2
    ID : 3
    Format : MLP FBA 16-ch
    Format/Info : Meridian Lossless Packing FBA with 16-channel presentation
    Commercial name : Dolby TrueHD with Dolby Atmos
    Codec ID : A_TRUEHD
    Duration : 3 h 48 min
    Bit rate mode : Variable
    Bit rate : 2 995 kb/s
    Maximum bit rate : 4 992 kb/s
    Channel(s) : 8 channels
    Channel layout : L R C LFE Ls Rs Lb Rb
    Sampling rate : 48.0 kHz
    Frame rate : 1 200.000 FPS (40 SPF)
    Compression mode : Lossless
    Stream size : 4.77 GiB (52%)
    Title : Eng TrueHD Atmos 7.1
    Language : English
    Default : Yes
    Forced : No
    Number of dynamic objects : 11
    Bed channel count : 1 channel
    Bed channel configuration : LFE

    Text #1
    ID : 4
    Format : VobSub
    Muxing mode : zlib
    Codec ID : S_VOBSUB
    Codec ID/Info : Picture based subtitle format used on DVDs
    Duration : 3 h 27 min
    Bit rate : 5 627 b/s
    Count of elements : 1732
    Stream size : 8.34 MiB (0%)
    Title : Thai 1080p
    Language : Thai
    Default : No
    Forced : No

    Text #2
    ID : 5
    Format : VobSub
    Muxing mode : zlib
    Codec ID : S_VOBSUB
    Codec ID/Info : Picture based subtitle format used on DVDs
    Duration : 3 h 27 min
    Bit rate : 5 627 b/s
    Count of elements : 1732
    Stream size : 8.34 MiB (0%)
    Title : Thai 1080p Out
    Language : Thai
    Default : Yes
    Forced : No

    Text #3
    ID : 6
    Format : VobSub
    Muxing mode : zlib
    Codec ID : S_VOBSUB
    Codec ID/Info : Picture based subtitle format used on DVDs
    Duration : 3 h 27 min
    Bit rate : 7 408 b/s
    Count of elements : 1732
    Stream size : 11.0 MiB (0%)
    Title : Thai 1080p Out Big
    Language : Thai
    Default : No
    Forced : No

    Text #4
    ID : 7
    Format : PGS
    Muxing mode : zlib
    Codec ID : S_HDMV/PGS
    Codec ID/Info : Picture based subtitle format used on BDs/HD-DVDs
    Duration : 3 h 27 min
    Bit rate : 20.2 kb/s
    Count of elements : 3464
    Stream size : 30.0 MiB (0%)
    Title : Thai PGS
    Language : Thai
    Default : No
    Forced : No

    Text #5
    ID : 8
    Format : PGS
    Muxing mode : zlib
    Codec ID : S_HDMV/PGS
    Codec ID/Info : Picture based subtitle format used on BDs/HD-DVDs
    Duration : 3 h 27 min
    Bit rate : 20.2 kb/s
    Count of elements : 3464
    Stream size : 30.0 MiB (0%)
    Title : Thai PGS Out
    Language : Thai
    Default : No
    Forced : No

    Text #6
    ID : 9
    Format : PGS
    Muxing mode : zlib
    Codec ID : S_HDMV/PGS
    Codec ID/Info : Picture based subtitle format used on BDs/HD-DVDs
    Duration : 3 h 27 min
    Bit rate : 30.8 kb/s
    Count of elements : 3464
    Stream size : 45.6 MiB (0%)
    Title : Thai PGS Out Big
    Language : Thai
    Default : No
    Forced : No

    Text #7
    ID : 10
    Format : PGS
    Muxing mode : zlib
    Codec ID : S_HDMV/PGS
    Codec ID/Info : Picture based subtitle format used on BDs/HD-DVDs
    Duration : 3 h 19 min
    Bit rate : 23.2 kb/s
    Count of elements : 3634
    Stream size : 33.2 MiB (0%)
    Title : Eng PGS
    Language : English
    Default : No
    Forced : No







    xxxxxxxxxxxxxxxxxxxxxxxxxxxxxxxxxxxxxxxxxxxxxxxxxx xxxxxxx




    เรื่องย่อ
    อภิมหากาพย์ความยิ่งใหญ่จากนวนิยายแฟนตาซีอันลือลั่น ศึกหอคอยคู่กู้พิภพ ภาคต่อของ อภินิหารแหวนครองพิภพ ที่ได้รับการยกย่องว่าเป็นภาคต่อที่ดีที่สุดของวงการ ภาพยนตร์ที่เคยมีมา บัดนี้กลุ่มผองเพื่อนแห่งดินแดน “มิดเดิล เอิร์ธ” ที่กุมชะตามนุษย์โลกได้ถึงคราวแตกกระสานซ่านเซ็นไปตา มยถากรรมฟ้าลิขิต ผิดกับเหล่ากองทัพศัตรูนับหมื่นที่ต่างเซ็งแซ่โห่ร้อ งพร้อมกับผนึกกำลังมากมายมหาศาลเป็นประวัติการณ์ จุดประสงค์คือ การล้างเผ่าพันธุ์มนุษยชาติ...พบการผจญภัยเหนือจินตน าการของเหล่าฮอบบิทผู้กล้าและผองเพื่อนทุกเผ่าพันธุ์ ...ความมหัศจรรย์พันลึกของสงครามแห่งแหวนได้เริ่มขึ้ น...อีกครั้ง!!!

    General
    Complete name : The.Lord.of.the.Rings.2002.Extended.Blu-ray.1080p.TrueHD.7.1.Atmos.x265.mkv
    Format : Matroska
    Format version : Version 4
    File size : 9.57 GiB
    Duration : 3 h 55 min
    Overall bit rate mode : Variable
    Overall bit rate : 5 818 kb/s
    Movie name : The.Lord.of.the.Rings.2002.Extended.Blu-ray.1080p.TrueHD.7.1.Atmos.x265 - [email protected]
    Encoded date : UTC 2021-04-24 03:36:16
    Writing application : mkvmerge v45.0.0 ('Heaven in Pennies') 64-bit
    Writing library : libebml v1.3.10 + libmatroska v1.5.2
    Attachments : The Lord of the Rings 2.jpg

    Video
    ID : 1
    Format : HEVC
    Format/Info : High Efficiency Video Coding
    Format profile : Main [email protected]@Main
    Codec ID : V_MPEGH/ISO/HEVC
    Duration : 3 h 55 min
    Bit rate : 2 001 kb/s
    Width : 1 908 pixels
    Height : 798 pixels
    Display aspect ratio : 2.40:1
    Frame rate mode : Constant
    Frame rate : 23.976 (24000/1001) FPS
    Color space : YUV
    Chroma subsampling : 4:2:0
    Bit depth : 10 bits
    Bits/(Pixel*Frame) : 0.055
    Stream size : 3.29 GiB (34%)
    Writing library : x265 3.3+4-siambit.me-30eb4de83092:[Linux][GCC 8.3.1][64 bit] 10bit
    Encoding settings : cpuid=1111039 / frame-threads=4 / wpp / no-pmode / no-pme / no-psnr / no-ssim / log-level=2 / input-csp=1 / input-res=1908x798 / interlace=0 / total-frames=0 / level-idc=0 / high-tier=1 / uhd-bd=0 / ref=4 / no-allow-non-conformance / no-repeat-headers / annexb / no-aud / no-hrd / info / hash=0 / no-temporal-layers / open-gop / min-keyint=23 / keyint=250 / gop-lookahead=0 / bframes=4 / b-adapt=2 / b-pyramid / bframe-bias=0 / rc-lookahead=25 / lookahead-slices=4 / scenecut=40 / hist-scenecut=0 / radl=0 / no-splice / no-intra-refresh / ctu=64 / min-cu-size=8 / rect / no-amp / max-tu-size=32 / tu-inter-depth=1 / tu-intra-depth=1 / limit-tu=0 / rdoq-level=2 / dynamic-rd=0.00 / no-ssim-rd / signh-i-d-e / no-tskip / nr-intra=0 / nr-inter=0 / no-constrained-intra / strong-intra-smoothing / max-merge=3 / limit-refs=3 / limit-modes / me=3 / subme=3 / merange=57 / temporal-mvp / no-frame-dup / no-hme / weightp / no-weightb / no-analyze-src-pics / deblock=0:0 / no-sao / no-sao-non-deblock / rd=4 / selective-sao=0 / no-early-skip / rskip / no-fast-intra / no-tskip-fast / no-cu-lossless / no-b-intra / no-splitrd-skip / rdpenalty=0 / psy-rd=2.00 / psy-rdoq=1.00 / no-rd-refine / no-lossless / cbqpoffs=0 / crqpoffs=0 / rc=abr / bitrate=2000 / qcomp=0.60 / qpstep=4 / stats-write=0 / stats-read=2 / cplxblur=20.0 / qblur=0.5 / ipratio=1.40 / pbratio=1.30 / aq-mode=3 / aq-strength=1.00 / cutree / zone-count=0 / no-strict-cbr / qg-size=32 / no-rc-grain / qpmax=69 / qpmin=0 / no-const-vbv / sar=1 / overscan=0 / videoformat=5 / range=0 / colorprim=2 / transfer=2 / colormatrix=2 / chromaloc=0 / display-window=0 / cll=0,0 / min-luma=0 / max-luma=1023 / log2-max-poc-lsb=8 / vui-timing-info / vui-hrd-info / slices=1 / no-opt-qp-pps / no-opt-ref-list-length-pps / no-multi-pass-opt-rps / scenecut-bias=0.05 / hist-threshold=0.01 / no-opt-cu-delta-qp / no-aq-motion / no-hdr10 / no-hdr10-opt / no-dhdr10-opt / no-idr-recovery-sei / analysis-reuse-level=0 / analysis-save-reuse-level=0 / analysis-load-reuse-level=0 / scale-factor=0 / refine-intra=0 / refine-inter=0 / refine-mv=1 / refine-ctu-distortion=0 / no-limit-sao / ctu-info=0 / no-lowpass-dct / refine-analysis-type=0 / copy-pic=1 / max-ausize-factor=1.0 / no-dynamic-refine / no-single-sei / no-hevc-aq / no-svt / no-field / qp-adaptation-range=1.00 / no-scenecut-aware-qpconformance-window-offsets / right=0 / bottom=0
    Language : English
    Default : Yes
    Forced : No

    Audio #1
    ID : 2
    Format : AC-3
    Format/Info : Audio Coding 3
    Commercial name : Dolby Digital
    Codec ID : A_AC3
    Duration : 3 h 55 min
    Bit rate mode : Constant
    Bit rate : 640 kb/s
    Channel(s) : 6 channels
    Channel layout : L R C LFE Ls Rs
    Sampling rate : 48.0 kHz
    Frame rate : 31.250 FPS (1536 SPF)
    Bit depth : 16 bits
    Compression mode : Lossy
    Stream size : 1.05 GiB (11%)
    Title : Thai AC-3
    Language : Thai
    Service kind : Complete Main
    Default : No
    Forced : No

    Audio #2
    ID : 3
    Format : MLP FBA 16-ch
    Format/Info : Meridian Lossless Packing FBA with 16-channel presentation
    Commercial name : Dolby TrueHD with Dolby Atmos
    Codec ID : A_TRUEHD
    Duration : 3 h 55 min
    Bit rate mode : Variable
    Bit rate : 3 058 kb/s
    Maximum bit rate : 4 668 kb/s
    Channel(s) : 8 channels
    Channel layout : L R C LFE Ls Rs Lb Rb
    Sampling rate : 48.0 kHz
    Frame rate : 1 200.000 FPS (40 SPF)
    Compression mode : Lossless
    Stream size : 5.03 GiB (53%)
    Title : Eng TrueHD Atmos 7.1
    Language : English
    Default : Yes
    Forced : No
    Number of dynamic objects : 11
    Bed channel count : 1 channel
    Bed channel configuration : LFE

    Text #1
    ID : 4
    Format : VobSub
    Muxing mode : zlib
    Codec ID : S_VOBSUB
    Codec ID/Info : Picture based subtitle format used on DVDs
    Duration : 3 h 42 min
    Bit rate : 5 245 b/s
    Count of elements : 2031
    Stream size : 8.35 MiB (0%)
    Title : Thai 1080p
    Language : Thai
    Default : No
    Forced : No

    Text #2
    ID : 5
    Format : VobSub
    Muxing mode : zlib
    Codec ID : S_VOBSUB
    Codec ID/Info : Picture based subtitle format used on DVDs
    Duration : 3 h 42 min
    Bit rate : 5 245 b/s
    Count of elements : 2031
    Stream size : 8.35 MiB (0%)
    Title : Thai 1080p Out
    Language : Thai
    Default : Yes
    Forced : No

    Text #3
    ID : 6
    Format : VobSub
    Muxing mode : zlib
    Codec ID : S_VOBSUB
    Codec ID/Info : Picture based subtitle format used on DVDs
    Duration : 3 h 42 min
    Bit rate : 6 907 b/s
    Count of elements : 2031
    Stream size : 11.0 MiB (0%)
    Title : Thai 1080p Out Big
    Language : Thai
    Default : No
    Forced : No

    Text #4
    ID : 7
    Format : PGS
    Muxing mode : zlib
    Codec ID : S_HDMV/PGS
    Codec ID/Info : Picture based subtitle format used on BDs/HD-DVDs
    Duration : 3 h 42 min
    Bit rate : 18.9 kb/s
    Count of elements : 4062
    Stream size : 30.1 MiB (0%)
    Title : Thai PGS
    Language : Thai
    Default : No
    Forced : No

    Text #5
    ID : 8
    Format : PGS
    Muxing mode : zlib
    Codec ID : S_HDMV/PGS
    Codec ID/Info : Picture based subtitle format used on BDs/HD-DVDs
    Duration : 3 h 42 min
    Bit rate : 18.9 kb/s
    Count of elements : 4062
    Stream size : 30.1 MiB (0%)
    Title : Thai PGS Out
    Language : Thai
    Default : No
    Forced : No

    Text #6
    ID : 9
    Format : PGS
    Muxing mode : zlib
    Codec ID : S_HDMV/PGS
    Codec ID/Info : Picture based subtitle format used on BDs/HD-DVDs
    Duration : 3 h 42 min
    Bit rate : 28.7 kb/s
    Count of elements : 4062
    Stream size : 45.7 MiB (0%)
    Title : Thai PGS Out Big
    Language : Thai
    Default : No
    Forced : No

    Text #7
    ID : 10
    Format : PGS
    Muxing mode : zlib
    Codec ID : S_HDMV/PGS
    Codec ID/Info : Picture based subtitle format used on BDs/HD-DVDs
    Duration : 3 h 33 min
    Bit rate : 23.1 kb/s
    Count of elements : 4324
    Stream size : 35.2 MiB (0%)
    Title : Eng PGS
    Language : English
    Default : No
    Forced : No







    xxxxxxxxxxxxxxxxxxxxxxxxxxxxxxxxxxxxxxxxxxxxxxxxxx xxxxxxx





    เรื่องย่อ
    สงครามครั้งสุดท้ายแห่งมัชฌิมโลกเริ่มขึ้น โฟรโดและแซมซึ่งมีกอลลั่มนำทางยังคงดำเนินภารกิจอันต รายมุ่งหน้าสู่หุบเขาไฟแห่งดินแดนมรณะ (Mount Doom) เพื่อทำลายแหวน อรากอร์น พร้อมด้วยพรรคพวกเหล่าพันธมิตรแห่งแหวนเร่งระดมพลในก ารทำศึกครั้งสุดท้ายของมัชฌิมโลกเพื่อปกป้องโลกจาก ลอร์ดซอรอน ในขณะทัพกำลังพลเพียงน้อยนิดต่อต้านกองกำลังอันยิ่งใ หญ่มหึมาของลอร์ด ซอรอนจอมโฉดเพื่อให้ผู้ถือแหวน (โฟรโด) สามารถกระทำภารกิจในการทำลาย และไม่ให้แหวนตกถึงมือลอร์ดซอรอนจอมโฉดแห่งความมืดได ้สำเร็จความหวังสุดท้ายของเหล่าพันธมิตรกับฮอบบิทตัว น้อยจะสำเร็จหรือไม่ เมื่อภารกิจของเขาเหล่านี้จะนำมาซึ่งชีวิตของพวกเขา! !!

    General
    Complete name : The.Lord.of.the.Rings.2003.Extended.Blu-ray.1080p.TrueHD.7.1.Atmos.x265.mkv
    Format : Matroska
    Format version : Version 4
    File size : 10.5 GiB
    Duration : 4 h 23 min
    Overall bit rate mode : Variable
    Overall bit rate : 5 718 kb/s
    Movie name : The.Lord.of.the.Rings.2003.Extended.Blu-ray.1080p.TrueHD.7.1.Atmos.x265 - [email protected]
    Encoded date : UTC 2021-04-24 03:50:04
    Writing application : mkvmerge v45.0.0 ('Heaven in Pennies') 64-bit
    Writing library : libebml v1.3.10 + libmatroska v1.5.2
    Attachments : The Lord of the Rings 3.jpg

    Video
    ID : 1
    Format : HEVC
    Format/Info : High Efficiency Video Coding
    Format profile : Main [email protected]@Main
    Codec ID : V_MPEGH/ISO/HEVC
    Duration : 4 h 23 min
    Bit rate : 2 001 kb/s
    Width : 1 920 pixels
    Height : 796 pixels
    Display aspect ratio : 2.40:1
    Frame rate mode : Constant
    Frame rate : 23.976 (24000/1001) FPS
    Color space : YUV
    Chroma subsampling : 4:2:0
    Bit depth : 10 bits
    Bits/(Pixel*Frame) : 0.055
    Stream size : 3.68 GiB (35%)
    Writing library : x265 3.3+4-siambit.me-30eb4de83092:[Linux][GCC 8.3.1][64 bit] 10bit
    Encoding settings : cpuid=1111039 / frame-threads=4 / wpp / no-pmode / no-pme / no-psnr / no-ssim / log-level=2 / input-csp=1 / input-res=1920x796 / interlace=0 / total-frames=0 / level-idc=0 / high-tier=1 / uhd-bd=0 / ref=4 / no-allow-non-conformance / no-repeat-headers / annexb / no-aud / no-hrd / info / hash=0 / no-temporal-layers / open-gop / min-keyint=23 / keyint=250 / gop-lookahead=0 / bframes=4 / b-adapt=2 / b-pyramid / bframe-bias=0 / rc-lookahead=25 / lookahead-slices=4 / scenecut=40 / hist-scenecut=0 / radl=0 / no-splice / no-intra-refresh / ctu=64 / min-cu-size=8 / rect / no-amp / max-tu-size=32 / tu-inter-depth=1 / tu-intra-depth=1 / limit-tu=0 / rdoq-level=2 / dynamic-rd=0.00 / no-ssim-rd / signh-i-d-e / no-tskip / nr-intra=0 / nr-inter=0 / no-constrained-intra / strong-intra-smoothing / max-merge=3 / limit-refs=3 / limit-modes / me=3 / subme=3 / merange=57 / temporal-mvp / no-frame-dup / no-hme / weightp / no-weightb / no-analyze-src-pics / deblock=0:0 / no-sao / no-sao-non-deblock / rd=4 / selective-sao=0 / no-early-skip / rskip / no-fast-intra / no-tskip-fast / no-cu-lossless / no-b-intra / no-splitrd-skip / rdpenalty=0 / psy-rd=2.00 / psy-rdoq=1.00 / no-rd-refine / no-lossless / cbqpoffs=0 / crqpoffs=0 / rc=abr / bitrate=2000 / qcomp=0.60 / qpstep=4 / stats-write=0 / stats-read=2 / cplxblur=20.0 / qblur=0.5 / ipratio=1.40 / pbratio=1.30 / aq-mode=3 / aq-strength=1.00 / cutree / zone-count=0 / no-strict-cbr / qg-size=32 / no-rc-grain / qpmax=69 / qpmin=0 / no-const-vbv / sar=1 / overscan=0 / videoformat=5 / range=0 / colorprim=2 / transfer=2 / colormatrix=2 / chromaloc=0 / display-window=0 / cll=0,0 / min-luma=0 / max-luma=1023 / log2-max-poc-lsb=8 / vui-timing-info / vui-hrd-info / slices=1 / no-opt-qp-pps / no-opt-ref-list-length-pps / no-multi-pass-opt-rps / scenecut-bias=0.05 / hist-threshold=0.01 / no-opt-cu-delta-qp / no-aq-motion / no-hdr10 / no-hdr10-opt / no-dhdr10-opt / no-idr-recovery-sei / analysis-reuse-level=0 / analysis-save-reuse-level=0 / analysis-load-reuse-level=0 / scale-factor=0 / refine-intra=0 / refine-inter=0 / refine-mv=1 / refine-ctu-distortion=0 / no-limit-sao / ctu-info=0 / no-lowpass-dct / refine-analysis-type=0 / copy-pic=1 / max-ausize-factor=1.0 / no-dynamic-refine / no-single-sei / no-hevc-aq / no-svt / no-field / qp-adaptation-range=1.00 / no-scenecut-aware-qpconformance-window-offsets / right=0 / bottom=0
    Language : English
    Default : Yes
    Forced : No

    Audio #1
    ID : 2
    Format : AC-3
    Format/Info : Audio Coding 3
    Commercial name : Dolby Digital
    Codec ID : A_AC3
    Duration : 4 h 23 min
    Bit rate mode : Constant
    Bit rate : 640 kb/s
    Channel(s) : 6 channels
    Channel layout : L R C LFE Ls Rs
    Sampling rate : 48.0 kHz
    Frame rate : 31.250 FPS (1536 SPF)
    Bit depth : 16 bits
    Compression mode : Lossy
    Stream size : 1.18 GiB (11%)
    Title : Thai AC-3
    Language : Thai
    Service kind : Complete Main
    Default : No
    Forced : No

    Audio #2
    ID : 3
    Format : MLP FBA 16-ch
    Format/Info : Meridian Lossless Packing FBA with 16-channel presentation
    Commercial name : Dolby TrueHD with Dolby Atmos
    Codec ID : A_TRUEHD
    Duration : 4 h 23 min
    Bit rate mode : Variable
    Bit rate : 2 971 kb/s
    Maximum bit rate : 4 515 kb/s
    Channel(s) : 8 channels
    Channel layout : L R C LFE Ls Rs Lb Rb
    Sampling rate : 48.0 kHz
    Frame rate : 1 200.000 FPS (40 SPF)
    Compression mode : Lossless
    Stream size : 5.46 GiB (52%)
    Title : Eng TrueHD Atmos 7.1
    Language : English
    Default : Yes
    Forced : No
    Number of dynamic objects : 11
    Bed channel count : 1 channel
    Bed channel configuration : LFE

    Text #1
    ID : 4
    Format : VobSub
    Muxing mode : zlib
    Codec ID : S_VOBSUB
    Codec ID/Info : Picture based subtitle format used on DVDs
    Duration : 3 h 59 min
    Bit rate : 3 938 b/s
    Count of elements : 1785
    Stream size : 6.74 MiB (0%)
    Title : Thai 1080p
    Language : Thai
    Default : No
    Forced : No

    Text #2
    ID : 5
    Format : VobSub
    Muxing mode : zlib
    Codec ID : S_VOBSUB
    Codec ID/Info : Picture based subtitle format used on DVDs
    Duration : 3 h 59 min
    Bit rate : 3 938 b/s
    Count of elements : 1785
    Stream size : 6.74 MiB (0%)
    Title : Thai 1080p Out
    Language : Thai
    Default : Yes
    Forced : No

    Text #3
    ID : 6
    Format : VobSub
    Muxing mode : zlib
    Codec ID : S_VOBSUB
    Codec ID/Info : Picture based subtitle format used on DVDs
    Duration : 3 h 59 min
    Bit rate : 5 193 b/s
    Count of elements : 1785
    Stream size : 8.89 MiB (0%)
    Title : Thai 1080p Out Big
    Language : Thai
    Default : No
    Forced : No

    Text #4
    ID : 7
    Format : PGS
    Muxing mode : zlib
    Codec ID : S_HDMV/PGS
    Codec ID/Info : Picture based subtitle format used on BDs/HD-DVDs
    Duration : 3 h 59 min
    Bit rate : 14.3 kb/s
    Count of elements : 3570
    Stream size : 24.4 MiB (0%)
    Title : Thai PGS
    Language : Thai
    Default : No
    Forced : No

    Text #5
    ID : 8
    Format : PGS
    Muxing mode : zlib
    Codec ID : S_HDMV/PGS
    Codec ID/Info : Picture based subtitle format used on BDs/HD-DVDs
    Duration : 3 h 59 min
    Bit rate : 14.3 kb/s
    Count of elements : 3570
    Stream size : 24.4 MiB (0%)
    Title : Thai PGS Out
    Language : Thai
    Default : No
    Forced : No

    Text #6
    ID : 9
    Format : PGS
    Muxing mode : zlib
    Codec ID : S_HDMV/PGS
    Codec ID/Info : Picture based subtitle format used on BDs/HD-DVDs
    Duration : 3 h 59 min
    Bit rate : 21.7 kb/s
    Count of elements : 3570
    Stream size : 37.1 MiB (0%)
    Title : Thai PGS Out Big
    Language : Thai
    Default : No
    Forced : No

    Text #7
    ID : 10
    Format : PGS
    Muxing mode : zlib
    Codec ID : S_HDMV/PGS
    Codec ID/Info : Picture based subtitle format used on BDs/HD-DVDs
    Duration : 4 h 5 min
    Bit rate : 18.8 kb/s
    Count of elements : 4340
    Stream size : 33.1 MiB (0%)
    Title : Eng PGS
    Language : English
    Default : No
    Forced : No



    The.Lord.of.the.Rings.2001.Extended.Blu-ray.1080p.TrueHD.7.1.Atmos.x265.mkv - 9.2 GB
    The.Lord.of.the.Rings.2002.Extended.Blu-ray.1080p.TrueHD.7.1.Atmos.x265.mkv - 9.6 GB
    The.Lord.of.the.Rings.2003.Extended.Blu-ray.1080p.TrueHD.7.1.Atmos.x265.mkv - 10.5 GB

  2. The Following 2 Users Say Thank You to Duckload.us For This Useful Post:

    agg001 (04-27-2021), Wesker_TOT (05-03-2021)

  3. #2
    Senior Member
    สมัครเมื่อ
    Jan 2011
    โพสต์
    783
    Thanks
    1,067
    Thanked 0 Times in 0 Posts
    ขอบคุณครับ

  4. #3
    Junior Member
    สมัครเมื่อ
    Apr 2021
    โพสต์
    3
    Thanks
    0
    Thanked 0 Times in 0 Posts
    รบกวนขอแบบ Filecondo ด้วยครับ

  5. #4
    Senior Member
    สมัครเมื่อ
    Dec 2013
    โพสต์
    2,791
    Thanks
    4,710
    Thanked 0 Times in 0 Posts
    ขอบคุณนะครับ...

+ ตอบกลับกระทู้

ข้อมูลกระทู้

Users Browsing this Thread

ในขณะนี้มี 1 ท่านดูกระทู้อยู่. (0 สมาชิกและ 1 ผู้เยี่ยมชม)

     

กฎการโพสต์ข้อความ

  • ท่าน ไม่สามารถ ตั้งกระทู้ใหม่ได้
  • ท่าน ไม่สามารถ ตอบกระทู้ได้
  • ท่าน ไม่สามารถ แนบไฟล์ได้
  • ท่าน ไม่สามารถ แก้ไขข้อความโพสต์ได้
  • BB code สถานะ เปิด
  • Smilies สถานะ เปิด
  • [IMG] สถานะ เปิด
  • HTML สถานะ ปิด