+ ตอบกลับกระทู้
สรุปผลการค้นหา 1 ถึง 4 จากทั้งหมด 4
  1. #1
    Administrators รูปส่วนตัว Duckload.us
    สมัครเมื่อ
    Dec 2010
    โพสต์
    126,387
    Thanks
    7
    Thanked 130,974 Times in 58,015 Posts

    Thumbs up [ฝรั่ง]-[NETFLIX] The Mitchells vs. The Machines (2021) บ้านมิตเชลล์ปะทะจักรกล-WEB-DL.EAC-3.Atmos.1080p. [rip from Master]-[พากย์อังกฤษ Atmos 5.1 ไทย บรรยายไทย-อังกฤษ]




    หายนะโลกจากน้ำมือจักรกลขัดขวางทริปขับรถข้ามประเทศข องครอบครัว แต่มีเพียงครอบครัวที่ประหลาดที่สุดในโลกอย่างบ้านมิ ตเชลล์ที่ช่วยมนุษยชาติได้

    Format : Matroska
    Format version : Version 4
    File size : 4.84 GiB
    Duration : 1 h 54 min
    Overall bit rate : 6 072 kb/s
    Encoded date : UTC 2021-04-30 12:08:20
    Writing application : mkvmerge v56.1.0 ('My Friend') 64-bit
    Writing library : libebml v1.4.2 + libmatroska v1.6.4

    Video
    ID : 1
    Format : AVC
    Format/Info : Advanced Video Codec
    Format profile : [email protected]
    Format settings : CABAC / 3 Ref Frames
    Format settings, CABAC : Yes
    Format settings, Reference : 3 frames
    Codec ID : V_MPEG4/ISO/AVC
    Duration : 1 h 50 min
    Bit rate : 4 717 kb/s
    Width : 1 920 pixels
    Height : 1 038 pixels
    Display aspect ratio : 1.85:1
    Frame rate mode : Constant
    Frame rate : 23.976 (24000/1001) FPS
    Color space : YUV
    Chroma subsampling : 4:2:0
    Bit depth : 8 bits
    Scan type : Progressive
    Bits/(Pixel*Frame) : 0.099
    Stream size : 3.64 GiB (75%)
    Language : English
    Default : Yes
    Forced : No

    Audio #1
    ID : 2
    Format : E-AC-3 JOC
    Format/Info : Enhanced AC-3 with Joint Object Coding
    Commercial name : Dolby Digital Plus with Dolby Atmos
    Codec ID : A_EAC3
    Duration : 1 h 54 min
    Bit rate mode : Constant
    Bit rate : 768 kb/s
    Channel(s) : 6 channels
    Channel layout : L R C LFE Ls Rs
    Sampling rate : 48.0 kHz
    Frame rate : 31.250 FPS (1536 SPF)
    Compression mode : Lossy
    Stream size : 626 MiB (13%)
    Title : E-AC Atmos English
    Language : English
    Service kind : Complete Main
    Default : Yes
    Forced : No
    Complexity index : 16
    Number of dynamic objects : 15
    Bed channel count : 1 channel
    Bed channel configuration : LFE

    Audio #2
    ID : 3
    Format : E-AC-3
    Format/Info : Enhanced AC-3
    Commercial name : Dolby Digital Plus
    Codec ID : A_EAC3
    Duration : 1 h 50 min
    Bit rate mode : Constant
    Bit rate : 640 kb/s
    Channel(s) : 6 channels
    Channel layout : L R C LFE Ls Rs
    Sampling rate : 48.0 kHz
    Frame rate : 31.250 FPS (1536 SPF)
    Compression mode : Lossy
    Stream size : 506 MiB (10%)
    Title : E-AC3 Thai
    Language : Thai
    Service kind : Complete Main
    Default : No
    Forced : No

    Text #1
    ID : 4
    Format : VobSub
    Muxing mode : zlib
    Codec ID : S_VOBSUB
    Codec ID/Info : Picture based subtitle format used on DVDs
    Duration : 1 h 48 min
    Bit rate : 14.9 kb/s
    Count of elements : 1569
    Stream size : 11.6 MiB (0%)
    Title : Sub Thai 1080p
    Language : Thai
    Default : No
    Forced : No

    Text #2
    ID : 5
    Format : UTF-8
    Codec ID : S_TEXT/UTF8
    Codec ID/Info : UTF-8 Plain Text
    Duration : 1 h 48 min
    Bit rate : 160 b/s
    Count of elements : 1569
    Stream size : 128 KiB (0%)
    Title : Sub Thai SRT
    Language : Thai
    Default : No
    Forced : No

    Text #3
    ID : 6
    Format : PGS
    Muxing mode : zlib
    Codec ID : S_HDMV/PGS
    Codec ID/Info : Picture based subtitle format used on BDs/HD-DVDs
    Duration : 1 h 48 min
    Bit rate : 43.8 kb/s
    Count of elements : 3138
    Stream size : 34.1 MiB (1%)
    Title : Sub Thai PGS
    Language : Thai
    Default : No
    Forced : No

    Text #4
    ID : 7
    Format : PGS
    Muxing mode : zlib
    Codec ID : S_HDMV/PGS
    Codec ID/Info : Picture based subtitle format used on BDs/HD-DVDs
    Duration : 1 h 48 min
    Bit rate : 72.7 kb/s
    Count of elements : 3138
    Stream size : 56.5 MiB (1%)
    Title : Sub Thai PGS NETFLIX
    Language : Thai
    Default : Yes
    Forced : No

    Text #5
    ID : 8
    Format : VobSub
    Muxing mode : zlib
    Codec ID : S_VOBSUB
    Codec ID/Info : Picture based subtitle format used on DVDs
    Duration : 1 h 49 min
    Bit rate : 18.7 kb/s
    Count of elements : 2179
    Stream size : 14.6 MiB (0%)
    Title : Sub English 1080p
    Language : English
    Default : No
    Forced : No

    Text #6
    ID : 9
    Format : UTF-8
    Codec ID : S_TEXT/UTF8
    Codec ID/Info : UTF-8 Plain Text
    Duration : 1 h 49 min
    Bit rate : 83 b/s
    Count of elements : 2179
    Stream size : 66.8 KiB (0%)
    Title : Sub English SRT
    Language : English
    Default : No
    Forced : No

    Text #7
    ID : 10
    Format : PGS
    Muxing mode : zlib
    Codec ID : S_HDMV/PGS
    Codec ID/Info : Picture based subtitle format used on BDs/HD-DVDs
    Duration : 1 h 49 min
    Bit rate : 51.4 kb/s
    Count of elements : 4358
    Stream size : 40.2 MiB (1%)
    Title : Sub English PGS
    Language : English
    Default : No
    Forced : No






    4.84 GB
    Download:cornfile
    http://cornfile.com/fotp5dnwq8wv
    Download:filecondo
    http://www.filecondo.com/dl.php?f=U88e171LCubt

    6.5 G
    Download:cornfile
    http://cornfile.com/945fo25h6b4l
    Download:filecondo
    http://www.filecondo.com/dl.php?f=z1352c1LCOQK

  2. The Following 2 Users Say Thank You to Duckload.us For This Useful Post:

    jackjangri (05-01-2021), Wesker_TOT (05-01-2021)

  3. #2
    Senior Member
    สมัครเมื่อ
    Jul 2013
    โพสต์
    2,089
    Thanks
    0
    Thanked 0 Times in 0 Posts
    ขอบคุณครับ

  4. #3
    Senior Member
    สมัครเมื่อ
    Jun 2011
    โพสต์
    119
    Thanks
    273
    Thanked 40 Times in 29 Posts
    ขอบคุณครับ

  5. #4
    Senior Member
    สมัครเมื่อ
    Dec 2013
    โพสต์
    2,755
    Thanks
    4,675
    Thanked 0 Times in 0 Posts
    ขอบคุณครับ...

+ ตอบกลับกระทู้

ข้อมูลกระทู้

Users Browsing this Thread

ในขณะนี้มี 1 ท่านดูกระทู้อยู่. (0 สมาชิกและ 1 ผู้เยี่ยมชม)

     

กฎการโพสต์ข้อความ

  • ท่าน ไม่สามารถ ตั้งกระทู้ใหม่ได้
  • ท่าน ไม่สามารถ ตอบกระทู้ได้
  • ท่าน ไม่สามารถ แนบไฟล์ได้
  • ท่าน ไม่สามารถ แก้ไขข้อความโพสต์ได้
  • BB code สถานะ เปิด
  • Smilies สถานะ เปิด
  • [IMG] สถานะ เปิด
  • HTML สถานะ ปิด