+ ตอบกลับกระทู้
สรุปผลการค้นหา 1 ถึง 5 จากทั้งหมด 5
  1. #1
    Administrators รูปส่วนตัว Duckload.us
    สมัครเมื่อ
    Dec 2010
    โพสต์
    126,387
    Thanks
    7
    Thanked 130,975 Times in 58,016 Posts

    Thumbs up [ฝรั่ง]- Swamp Thing (2019) สวอมป์ติง อสูรหนองน้ำ [เสียง:อังกฤษ AC-3][บรรยาย: ไทย HBO PGS-อังกฤษ SRT]-WEB-DL.H.264.1080p. [From HD-TV]-[Soundtrack บรรยายไทย]



    Swamp Thing คือซีรีส์สยองขวัญที่สร้างจากการ์ตูนตามต้นฉบับของ DC เกี่ยวกับการสืบสวนของเจ้าหน้าที่ที่เข้ามาสืบหาต้นเ หตุของไวรัสในหนองน้ำที่ลุยเซียนา จนพบกับอสูรกายที่คอยสร้างสถานการณ์ต่างๆ
    Swamp Thing เริ่มจากนักวิจัย CDC อย่าง Abby Arcane ได้เดินทางไปทำการสำรวจไวรัสอันตรายในหนองนํ้าแห่งหน ึ่ง ที่นั่นเธอได้พัฒนาสัมพันธ์พิเศษกับ Alec Holland นักวิทยาศาสตร์ในพื้นที่ แต่วันหนึ่งบางสิ่งกลับพรากเขาไปจากเธอ ไม่ช้า Abbey ก็พบว่าหนองนํ้าที่เธอทำการสำรวจนั้นมีความลับทางไสย ศาสตร์ที่ทั้งน่าสะพรึงและน่าตกใจซ่อนอยู่ และอดีตคนรักของเธอ… ก็อาจจะยังไม่ได้เสียชีวิตอย่างที่คิด

    Video
    ID : 1
    Format : AVC
    Format/Info : Advanced Video Codec
    Format profile : [email protected]
    Format settings : CABAC / 4 Ref Frames
    Format settings, CABAC : Yes
    Format settings, Reference fra : 4 frames
    Codec ID : V_MPEG4/ISO/AVC
    Duration : 59 min 38 s
    Bit rate mode : Constant
    Bit rate : 5 642 kb/s
    Nominal bit rate : 10 000 kb/s
    Width : 1 920 pixels
    Height : 1 080 pixels
    Display aspect ratio : 16:9
    Frame rate mode : Constant
    Frame rate : 23.976 (24000/1001) FPS
    Color space : YUV
    Chroma subsampling : 4:2:0
    Bit depth : 8 bits
    Scan type : Progressive
    Bits/(Pixel*Frame) : 0.113
    Stream size : 2.35 GiB (89%)
    Default : Yes
    Forced : No
    Color range : Limited
    Color primaries : BT.709
    Transfer characteristics : BT.709
    Matrix coefficients : BT.709

    Audio
    ID : 2
    Format : E-AC-3
    Format/Info : Enhanced AC-3
    Commercial name : Dolby Digital Plus
    Codec ID : A_EAC3
    Duration : 59 min 39 s
    Bit rate mode : Constant
    Bit rate : 640 kb/s
    Channel(s) : 6 channels
    Channel layout : L R C LFE Ls Rs
    Sampling rate : 48.0 kHz
    Frame rate : 31.250 FPS (1536 SPF)
    Compression mode : Lossy
    Stream size : 273 MiB (10%)
    Title : [English-AC-3]
    Language : English
    Service kind : Complete Main
    Default : Yes
    Forced : No

    Text #1
    ID : 3
    Format : PGS
    Muxing mode : zlib
    Codec ID : S_HDMV/PGS
    Codec ID/Info : Picture based subtitle format used on BDs/HD-DVDs
    Duration : 58 min 18 s
    Bit rate : 43.8 kb/s
    Count of elements : 1134
    Stream size : 18.3 MiB (1%)
    Title : [Thai HBO PGS]
    Language : Thai
    Default : Yes
    Forced : No

    Text #2
    ID : 4
    Format : UTF-8
    Codec ID : S_TEXT/UTF8
    Codec ID/Info : UTF-8 Plain Text
    Duration : 58 min 11 s
    Bit rate : 52 b/s
    Count of elements : 844
    Stream size : 22.6 KiB (0%)
    Title : SRT
    Language : English
    Default : No
    Forced : No

    Menu
    00:00:00.000 : Studio Logo
    00:00:23.000 : Scene 2
    00:04:47.000 : Opening Credits
    00:05:54.000 : Scene 4
    00:13:15.000 : Scene 5
    00:21:06.000 : Scene 6
    00:25:30.000 : Scene 7
    00:29:35.000 : Scene 8
    00:35:00.000 : Scene 9
    00:43:23.000 : Scene 10
    00:52:36.000 : Scene 11
    00:58:51.000 : End Credits








    Download:cornfile
    Swamp.Thing.2019.S01E01.Pilot.1080p.mkv - 2.6 GB
    Swamp.Thing.2019.S01E02.Worlds.Apart.1080p.mkv - 2.3 GB
    Swamp.Thing.2019.S01E03.He.Speaks.1080p.mkv - 3.1 GB
    Swamp.Thing.2019.S01E04.Darkness.on.the.Edge.of.To wn.1080p.mkv - 2.2 GB
    Swamp.Thing.2019.S01E05.Drive.All.Night.1080p.mkv - 2.5 GB
    Swamp.Thing.2019.S01E06.The.Price.You.Pay.1080p.mk v - 1.6 GB
    Swamp.Thing.2019.S01E07.Brilliant.Disguise.1080p.m kv - 2.3 GB
    Swamp.Thing.2019.S01E08.Long.Walk.Home.1080p.mkv - 1.8 GB
    Swamp.Thing.2019.S01E09.The.Anatomy.Lesson.1080p.m kv - 2.3 GB
    Swamp.Thing.2019.S01E10.Loose.Ends.1080p.mkv - 2.5 GB

    Download:filecondo
    01 http://www.filecondo.com/dl.php?f=z3b0d91LDxaB
    02 http://www.filecondo.com/dl.php?f=W07abf1LDxcC
    03 http://www.filecondo.com/dl.php?f=R756161LDxdz
    04 http://www.filecondo.com/dl.php?f=d6e0101LDxet
    05 http://www.filecondo.com/dl.php?f=r2ba2e1LDxfv
    06 http://www.filecondo.com/dl.php?f=h81b911LDxgh
    07 http://www.filecondo.com/dl.php?f=Me84de1LDxFu
    08 http://www.filecondo.com/dl.php?f=H4453f1LDxNO
    09 http://www.filecondo.com/dl.php?f=d2595b1LDxQF
    10 http://www.filecondo.com/dl.php?f=1175b01LDxho

  2. The Following 2 Users Say Thank You to Duckload.us For This Useful Post:

    futsuge (05-03-2021), gaszolineskywalker (วันนี้)

  3. #2
    Senior Member
    สมัครเมื่อ
    Jul 2013
    โพสต์
    2,090
    Thanks
    0
    Thanked 0 Times in 0 Posts
    ขอบคุณครับ

  4. #3
    Junior Member
    สมัครเมื่อ
    Oct 2016
    โพสต์
    15
    Thanks
    1
    Thanked 0 Times in 0 Posts
    ในที่สุดก็มีไฟล์ชัดให้โหลดเเล้ววว... ขอบคุณมากครับ ^^

  5. #4
    Junior Member
    สมัครเมื่อ
    May 2016
    โพสต์
    11
    Thanks
    0
    Thanked 0 Times in 0 Posts
    ขอบคุณครับ

  6. #5
    Senior Member
    สมัครเมื่อ
    Oct 2012
    โพสต์
    1,522
    Thanks
    2,451
    Thanked 0 Times in 0 Posts
    ขอบคุณครับ

+ ตอบกลับกระทู้

ข้อมูลกระทู้

Users Browsing this Thread

ในขณะนี้มี 1 ท่านดูกระทู้อยู่. (0 สมาชิกและ 1 ผู้เยี่ยมชม)

     

กฎการโพสต์ข้อความ

  • ท่าน ไม่สามารถ ตั้งกระทู้ใหม่ได้
  • ท่าน ไม่สามารถ ตอบกระทู้ได้
  • ท่าน ไม่สามารถ แนบไฟล์ได้
  • ท่าน ไม่สามารถ แก้ไขข้อความโพสต์ได้
  • BB code สถานะ เปิด
  • Smilies สถานะ เปิด
  • [IMG] สถานะ เปิด
  • HTML สถานะ ปิด