+ ตอบกลับกระทู้
สรุปผลการค้นหา 1 ถึง 2 จากทั้งหมด 2
  1. #1
    Administrators รูปส่วนตัว Duckload.us
    สมัครเมื่อ
    Dec 2010
    โพสต์
    126,387
    Thanks
    7
    Thanked 130,971 Times in 58,014 Posts

    Thumbs up MOJIN RAIDERS OF THE WU GORGE (2019) โมจินคำสาปใต้พิภพ WEB-DL AC3_2.0 [พากย์:ไทย][SUB:NO][1080p]



    หูปาอี Shirley หยาง และอ้วนหวัง ได้ติดเชื้อไว้รัสโดยไม่ได้ตั้งใจ จะสามารถมีชีวิตอยู่รอดได้นานแค่ 40 ปี หลังจากได้รับการเชิญไปศึกษาโบราณคดีจากศาสตราจารย์ซ ุน ได้ทราบว่าในโบราณสถานของหมู่บ้านตี้เซียนมียาแก้พิษ ซ่อนไว้อยู่ แก๊ง 3 คนจึงเดินทางไปผจญภัยในเขาเพื่อแก้พิษในตัว หลังจากผ่านอุปสรรคต่างๆมาถึงได้รู้ตัวว่าทั้งหมดนี้ เป็นแค่แผนอุบายของศาสตราจารย์ซุน ทั้ง 3 คน สุดท้ายได้รอดชีวิตมาหลังจากการต่อสู้ที่ดุเดือด

    Format : Matroska
    Format version : Version 4
    File size : 3.51 GiB
    Duration : 1 h 20 min
    Overall bit rate : 6 234 kb/s
    Movie name : Mojin Mysterious Treasure 2020_©GOLD CUP™-WWW.TT-TORRENT.COM
    Encoded date : UTC 2021-05-03 14:03:44
    Writing application : mkvmerge v56.1.0 ('My Friend') 64-bit
    Writing library : libebml v1.4.2 + libmatroska v1.6.4

    Video
    ID : 1
    Format : AVC
    Format/Info : Advanced Video Codec
    Format profile : [email protected]
    Format settings : CABAC / 2 Ref Frames
    Format settings, CABAC : Yes
    Format settings, Reference frames : 2 frames
    Format settings, GOP : M=1, N=25
    Codec ID : V_MPEG4/ISO/AVC
    Duration : 1 h 20 min
    Bit rate : 6 040 kb/s
    Width : 1 920 pixels
    Height : 806 pixels
    Display aspect ratio : 2.40:1
    Frame rate mode : Constant
    Frame rate : 29.970 (30000/1001) FPS
    Color space : YUV
    Chroma subsampling : 4:2:0
    Bit depth : 8 bits
    Scan type : Progressive
    Bits/(Pixel*Frame) : 0.130
    Stream size : 3.40 GiB (97%)
    Title : Mojin Mysterious Treasure 2020_©GOLD CUP™
    Language : Thai
    Default : Yes
    Forced : No

    Audio
    ID : 2
    Format : AC-3
    Format/Info : Audio Coding 3
    Commercial name : Dolby Digital
    Codec ID : A_AC3
    Duration : 1 h 20 min
    Bit rate mode : Constant
    Bit rate : 192 kb/s
    Channel(s) : 2 channels
    Channel layout : L R
    Sampling rate : 44.1 kHz
    Frame rate : 28.711 FPS (1536 SPF)
    Compression mode : Lossy
    Stream size : 111 MiB (3%)
    Title : Th.2.0.AC3.192k
    Language : Thai
    Service kind : Complete Main
    Default : Yes
    Forced : No





    Download:cornfile
    http://cornfile.com/841un28wkdel
    Download:filecondo
    http://www.filecondo.com/dl.php?f=Af3c921LDxKp

  2. The Following User Says Thank You to Duckload.us For This Useful Post:

    NaiWan (05-07-2021)

  3. #2
    Senior Member
    สมัครเมื่อ
    Oct 2013
    โพสต์
    1,922
    Thanks
    0
    Thanked 0 Times in 0 Posts
    ขอบคุณครับ

+ ตอบกลับกระทู้

ข้อมูลกระทู้

Users Browsing this Thread

ในขณะนี้มี 1 ท่านดูกระทู้อยู่. (0 สมาชิกและ 1 ผู้เยี่ยมชม)

     

กฎการโพสต์ข้อความ

  • ท่าน ไม่สามารถ ตั้งกระทู้ใหม่ได้
  • ท่าน ไม่สามารถ ตอบกระทู้ได้
  • ท่าน ไม่สามารถ แนบไฟล์ได้
  • ท่าน ไม่สามารถ แก้ไขข้อความโพสต์ได้
  • BB code สถานะ เปิด
  • Smilies สถานะ เปิด
  • [IMG] สถานะ เปิด
  • HTML สถานะ ปิด