+ ตอบกลับกระทู้
สรุปผลการค้นหา 1 ถึง 5 จากทั้งหมด 5
  1. #1
    Administrators รูปส่วนตัว Duckload.us
    สมัครเมื่อ
    Dec 2010
    โพสต์
    126,603
    Thanks
    7
    Thanked 131,223 Times in 58,107 Posts

    Lightbulb [เกาหลี]-[Eighteen Again กลับมาอายุ 18 ปีอีกครั้ง Kim Ha Neul, Yoon Sang Hyun, Lee Do Hyun, Wi Ha Joon, Noh Jung Ui TH Ep.1-16/End]-WEB-DL.H.264.1080p. [From HD-TV]-[Sound:Thai/Korea]-[Sub:Thai (Viu+Netflix)]




    ซีรี่ย์เกาหลี: Eighteen Again, 18 Again
    ชื่อภาษาไทย: กลับมาอายุ 18 ปีอีกครั้ง, ย้อนรัก ย้อนวัยฝัน
    ประเภท: Romance, Fantasy
    นักแสดง: Kim Ha Neul, Yoon Sang Hyun, Lee Do Hyun, Wi Ha Joon, Noh Jung Ui
    จำนวนตอน: 16
    เขียนบทโดย: Kim Do Yeon, Ahn Eun Bin, Choi Yi Ryun
    ผู้กำกับ: Ha Byung Hoon
    ออกอากาศทางสถานีโทรทัศน์: jTBC
    เริ่มออกอากาศ: 3 เม.ย. 2021 – 23 เม.ย. 2021
    เวลาออกอากาศ: ทุกวันเสาร์ & วันอาทิตย์ เวลา 08:00 น.
    นักแสดง:
    Kim Ha Neul as Jung Da Jung
    – Han So Eun as Da Jung (teen)
    Yoon Sang Hyun as Hong Dae Young
    – Lee Do Hyun as Hong Dae Young (teen)
    Lee Do Hyun as Go Woo Young
    Kim Yoo Ri as Ok Hye In
    Wi Ha Joon as Ye Ji Hoon
    Kim Kang Hyun as Ko Duk Jin
    Lee Mi Do as Choo Ae Rin
    Noh Jung Ui as Hong Shi Ah
    Rye Un as Hong Shi Woo
    People around Jung Da Jung
    Kim Mi Kyung as Yeo In Ja (Da Jung’s mother)
    People around Hong Dae Young
    Lee Byung Joon as Hong Joo Man (Hong Dae Young’s father)
    Serim High School
    Choi Bo Min as Seo Ji Ho
    Hwang In Yup as Koo Ja Sung
    Oh So Hyun as Jun Bo Bae
    Lee Eun Jae as Uhm So Mi
    Ryoo Da Bin as Hwang Young Sun
    Lee Ki Woo as Choi Il Kwon
    JBC Announcer Station
    Ahn Nae Sang as Moon Sang Hwi
    Jang Hyuk Jin as Heo Woong Ki
    Kim Yoon Hye as Kwon Yoo Mi
    Go Eun Min as Im Ja Young
    Yang Dae Hyuk as Nam Ki Tae
    Others
    Song Yoo Hyun as Mi Young
    Sysopsis: จองดาจองเคยเป็นเด็กสาวที่ใคร ๆ ต่างก็รุมรักทั้งชายทั้งหญิงในช่วงชีวิตมัธยมปลาย ตอนนี้เธอกลายมาเป็นแม่ของลูกชายและลูกสาวที่เป็นเด็ กแฝดอายุ 18 ปี และแน่นอนในวัยสามสิบปลาย ๆ ของเธอก็ต้องพยายามจะเป็นแม่ที่ดีให้เด็ก ๆ ดั่งเช่นแม่คนอื่น หลังจากที่ตกลงหย่ากับสามี ฮงแดยอง ซึ่งก็เคยเป็นอดีตดาวบาสเกตบอลโรงเรียนชื่อดังขวัญใจ สาว ๆ ที่ตอนนี้กลายเป็นคุณลุงตกงานและล้มเหลวในเรื่องชีวิ ตคู่ รวมทั้งมีความสัมพันธ์ที่ไม่ดีกับลูกตัวเอง อยู่มาวันหนึ่งก็มีเรื่องไม่คาดฝันเกิดขึ้นกับแดยอง เมื่อร่างกายของเขาย้อนกลับไปเป็นตัวเองในวัยสิบแปดป ี โดยที่จิตใจยังเป็นเหมือนเดิมทุกประการ เขาใช้ชีวิตในชื่อของโกอูยอง และได้มาพบกับดาจองภรรยาของตัวเองอีกครั้งในร่างของเ ด็กมัธยมปลาย ในขณะที่ดาจองรู้สึกคุ้นเคยกับเด็กคนนี้อย่างน่าประห ลาด พร้อม ๆ กับที่ความรู้สึกสบายใจ สนใจ และความรักที่ไม่สมควรเกิดเริ่มก่อตัวในใจอย่างช้า ๆ ทางด้านแดยองเองก็ต้องเผชิญกับเรื่องราวมากมายที่พิส ูจน์ว่าจริง ๆ แล้วตัวเองรักภรรยาและลูก ๆ มากแค่ไหน แล้วแดยองจะใช้โอกาสนี้เพื่อเปลี่ยนใจดาจองได้หรือไม ่ มาติดตามชมไปพร้อม ๆ กันได้ในซีรีส์เกาหลี Eighteen Again กลับมาอายุ 18 ปีอีกครั้ง
    Credit: franky

    General
    Unique ID : 127140399723130144693470957552060804512 (0x5FA659AD0D4F95521EA8403810932DA0)
    Complete name : K:Eighteen Again กลับมาอายุ 18 ปีอีกครั้ง18.Again.2020.S01E09.1080p.NF.WEB-DL.DDP2.0.x264.mkv
    Format : Matroska
    Format version : Version 4
    File size : 2.20 GiB
    Duration : 1 h 13 min
    Overall bit rate : 4 275 kb/s
    Encoded date : UTC 2021-04-20 07:13:27
    Writing application : mkvmerge v19.0.0 ('Brave Captain') 64-bit
    Writing library : libebml v1.3.5 + libmatroska v1.4.8

    Video
    ID : 1
    Format : AVC
    Format/Info : Advanced Video Codec
    Format profile : [email protected]
    Format settings : 1 Ref Frames
    Format settings, CABAC : No
    Format settings, Reference fra : 1 frame
    Codec ID : V_MPEG4/ISO/AVC
    Duration : 1 h 13 min
    Bit rate : 3 952 kb/s
    Width : 1 920 pixels
    Height : 1 080 pixels
    Display aspect ratio : 16:9
    Frame rate mode : Constant
    Frame rate : 23.976 (24000/1001) FPS
    Color space : YUV
    Chroma subsampling : 4:2:0
    Bit depth : 8 bits
    Scan type : Progressive
    Bits/(Pixel*Frame) : 0.079
    Stream size : 2.03 GiB (92%)
    Default : Yes
    Forced : No

    Audio #1
    ID : 2
    Format : AC-3
    Format/Info : Audio Coding 3
    Commercial name : Dolby Digital
    Codec ID : A_AC3
    Duration : 1 h 13 min
    Bit rate mode : Constant
    Bit rate : 192 kb/s
    Channel(s) : 2 channels
    Channel layout : L R
    Sampling rate : 48.0 kHz
    Frame rate : 31.250 FPS (1536 SPF)
    Compression mode : Lossy
    Stream size : 101 MiB (4%)
    Language : Thai
    Service kind : Complete Main
    Default : Yes
    Forced : No

    Audio #2
    ID : 3
    Format : E-AC-3
    Format/Info : Enhanced AC-3
    Commercial name : Dolby Digital Plus
    Codec ID : A_EAC3
    Duration : 1 h 13 min
    Bit rate mode : Constant
    Bit rate : 128 kb/s
    Channel(s) : 2 channels
    Channel layout : L R
    Sampling rate : 48.0 kHz
    Frame rate : 31.250 FPS (1536 SPF)
    Compression mode : Lossy
    Stream size : 67.3 MiB (3%)
    Language : Korean
    Service kind : Complete Main
    Default : No
    Forced : No

    Text #1
    ID : 4
    Format : UTF-8
    Codec ID : S_TEXT/UTF8
    Codec ID/Info : UTF-8 Plain Text
    Duration : 1 h 12 min
    Bit rate : 142 b/s
    Count of elements : 1200
    Stream size : 75.8 KiB (0%)
    Title : VIU
    Language : Thai
    Default : Yes
    Forced : No

    Text #2
    ID : 5
    Format : UTF-8
    Codec ID : S_TEXT/UTF8
    Codec ID/Info : UTF-8 Plain Text
    Duration : 1 h 13 min
    Bit rate : 151 b/s
    Count of elements : 1052
    Stream size : 81.6 KiB (0%)
    Title : Netflix
    Language : Thai
    Default : No
    Forced : No



    01 http://www.filecondo.com/dl.php?f=Efa72d1LDUAI
    02 http://www.filecondo.com/dl.php?f=Rbd3981LDUCD
    03 http://www.filecondo.com/dl.php?f=U030f21LDUDg
    04 http://www.filecondo.com/dl.php?f=e5e4cb1LDUEV
    05 http://www.filecondo.com/dl.php?f=j355701LDUL0
    06 http://www.filecondo.com/dl.php?f=h635ff1LDUOa
    07 http://www.filecondo.com/dl.php?f=8dbd041LDUQP
    08 http://www.filecondo.com/dl.php?f=A63b121LDURG
    09 http://www.filecondo.com/dl.php?f=t5aefc1LDUSA
    10 http://www.filecondo.com/dl.php?f=R931d81LDUTV
    11 http://www.filecondo.com/dl.php?f=Q3c1391LDUUB
    12 http://www.filecondo.com/dl.php?f=15d2b51LDUWI
    13 http://www.filecondo.com/dl.php?f=3173371LDUXB
    14 http://www.filecondo.com/dl.php?f=53ad5e1LDUZY
    15 http://www.filecondo.com/dl.php?f=l553261LDV1x
    16 http://www.filecondo.com/dl.php?f=Z5a5c61LDV2l

  2. #2
    Administrators รูปส่วนตัว Duckload.us
    สมัครเมื่อ
    Dec 2010
    โพสต์
    126,603
    Thanks
    7
    Thanked 131,223 Times in 58,107 Posts
    แก้ไขไฟลฺ์ [Sound:Thai/Korea]-[Sub:Thai (Viu+Netflix)]

  3. #3
    Junior Member
    สมัครเมื่อ
    Jun 2018
    โพสต์
    15
    Thanks
    0
    Thanked 0 Times in 0 Posts
    ขอบคุณมากๆครับ

  4. #4
    Senior Member
    สมัครเมื่อ
    Jul 2012
    โพสต์
    7,484
    Thanks
    0
    Thanked 0 Times in 0 Posts
    ขอบคุณมากจ้า

  5. #5
    Senior Member
    สมัครเมื่อ
    Jul 2013
    โพสต์
    2,127
    Thanks
    0
    Thanked 0 Times in 0 Posts
    ขอบคุณครับผม

+ ตอบกลับกระทู้

ข้อมูลกระทู้

Users Browsing this Thread

ในขณะนี้มี 1 ท่านดูกระทู้อยู่. (0 สมาชิกและ 1 ผู้เยี่ยมชม)

     

กฎการโพสต์ข้อความ

  • ท่าน ไม่สามารถ ตั้งกระทู้ใหม่ได้
  • ท่าน ไม่สามารถ ตอบกระทู้ได้
  • ท่าน ไม่สามารถ แนบไฟล์ได้
  • ท่าน ไม่สามารถ แก้ไขข้อความโพสต์ได้
  • BB code สถานะ เปิด
  • Smilies สถานะ เปิด
  • [IMG] สถานะ เปิด
  • HTML สถานะ ปิด