+ ตอบกลับกระทู้
สรุปผลการค้นหา 1 ถึง 4 จากทั้งหมด 4
  1. #1
    Administrators รูปส่วนตัว Duckload.us
    สมัครเมื่อ
    Dec 2010
    โพสต์
    126,470
    Thanks
    7
    Thanked 131,131 Times in 58,067 Posts

    Lightbulb [เกาหลี]-[More Than Friends มากกว่าเพื่อนจะได้ไหม Ong Sung Woo, Shin Ye Eun, Kim Dong Joon, Ahn Eun Jin, Baek Soo Min, P.O TH Ep.1-16/End]-WEB-DL.H.264.1080p. [From HD-TV]-[Sound:Thai/Korea]-[Sub:Thai (Viu+Netflix)]





    ซีรี่ย์เกาหลี: More Than Friends
    ชื่อภาษาไทย: มากกว่าเพื่อนจะได้ไหม
    ประเภท: Romance, Comedy
    จำนวนตอน: 16
    นำแสดงโดย: Ong Sung Woo, Shin Ye Eun, Kim Dong Joon, Ahn Eun Jin, Baek Soo Min, P.O
    ผู้กำกับ: Choi Sung Bum
    เขียนบทโดย: Jo Seung Hee
    ออกอากาศทางสถานีโทรทัศน์: VIU
    เริ่มออกอากาศ: 13 มีนาคม 2021
    เวลาออกอากาศ: ทุกวันเสาร์ & วันอาทิตย์ เวลา 08:00 น.
    นักแสดง:
    Ong Sung Woo as Lee Soo (28)
    Ha Yi Ahn as young Soo
    Shin Ye Eun as Kyung Woo Yun (28)
    Shim Hye Yun as young Woo Yun
    Kim Dong Joon as Ohn Joon Soo (34)
    Ahn Eun Jin as Kim Young Hee (29)
    Ahn Se Bin as young Young Hee
    Baek Soo Min as Han Jin Joo (28)
    Chi Chan Ho as Shin Hyun Jae (29)
    P.O as Jin Sang Hyuk (28)
    Soo's family
    Ahn Nae Sang as Lee Young Hwan (50)
    Kim Hee Jung as Choi Won Jung (50)
    Woo Yun's family
    Jo Ryun as Park Mi Sook (50)
    Seo Sang Won as Kyung Man Ho (50)
    Others
    Yoon Bok In as Oh Yoon Ja (49)
    Kim Dan Yool as Kim Chul Soo (17)
    Wang Hee Jae as young Chul Soo (7)
    Kang Yoon Je as Joon Young
    Oh Hee Joon as Min Sang Shik (34)
    Jung Mi Hyung as Min Ah
    Baek Seo Yi as Ji Hyun
    Bae Da Bin as Kwon Yoo Ra
    Shin Eun Soo
    Special guest appearances
    Woo Hyun as Mr. Han (ep 2)
    Sysopsis: ซีรีส์จะถ่ายทอดเรื่องราวโรแมนติกของชายและหญิงที่ต่ างคนต่าง ‘รักข้างเดียว’ กันและกัน มาเป็นเวลายาวนานกว่า 10 ปี กับเรื่องราวความรักของชายที่ในที่สุดก็ได้เข้าใจควา มรู้สึกของตัวเอง และผู้หญิงที่เก็บซ่อนความรู้สึกรักข้างเดียวเอาไว้ใ นใจเป็นเวลายาวนาน เพื่อร่วมกันหาคำตอบว่าเขาและเธอจะเปลี่ยนสถานะจากเพ ื่อน ไปเป็นคนรักได้หรือไม่ มาติดตามชมกันได้ในซีรีย์เกาหลี More Than Friends มากกว่าเพื่อนจะได้ไหม
    Credit: franky

    General
    Unique ID : 79017989026903288114203966671243536934 (0x3B724FA5A3DE47F45053A12C0F056A26)
    Complete name : K:More Than Friends มากกว่าเพื่อนจะได้ไหมMore.Than.Friends.2020.S01E09 .1080p.NF.WEB-DL.DDP2.0.x264.mkv
    Format : Matroska
    Format version : Version 4
    File size : 1.76 GiB
    Duration : 1 h 5 min
    Overall bit rate : 3 860 kb/s
    Encoded date : UTC 2021-05-01 14:20:48
    Writing application : mkvmerge v19.0.0 ('Brave Captain') 64-bit
    Writing library : libebml v1.3.5 + libmatroska v1.4.8

    Video
    ID : 1
    Format : AVC
    Format/Info : Advanced Video Codec
    Format profile : [email protected]
    Format settings : 1 Ref Frames
    Format settings, CABAC : No
    Format settings, Reference fra : 1 frame
    Codec ID : V_MPEG4/ISO/AVC
    Duration : 1 h 5 min
    Bit rate : 3 538 kb/s
    Width : 1 920 pixels
    Height : 1 080 pixels
    Display aspect ratio : 16:9
    Frame rate mode : Constant
    Frame rate : 23.976 (24000/1001) FPS
    Color space : YUV
    Chroma subsampling : 4:2:0
    Bit depth : 8 bits
    Scan type : Progressive
    Bits/(Pixel*Frame) : 0.071
    Stream size : 1.62 GiB (92%)
    Default : Yes
    Forced : No

    Audio #1
    ID : 2
    Format : AC-3
    Format/Info : Audio Coding 3
    Commercial name : Dolby Digital
    Codec ID : A_AC3
    Duration : 1 h 5 min
    Bit rate mode : Constant
    Bit rate : 192 kb/s
    Channel(s) : 2 channels
    Channel layout : L R
    Sampling rate : 48.0 kHz
    Frame rate : 31.250 FPS (1536 SPF)
    Compression mode : Lossy
    Delay relative to video : 31 ms
    Stream size : 89.8 MiB (5%)
    Language : Thai
    Service kind : Complete Main
    Default : Yes
    Forced : No

    Audio #2
    ID : 3
    Format : E-AC-3
    Format/Info : Enhanced AC-3
    Commercial name : Dolby Digital Plus
    Codec ID : A_EAC3
    Duration : 1 h 5 min
    Bit rate mode : Constant
    Bit rate : 128 kb/s
    Channel(s) : 2 channels
    Channel layout : L R
    Sampling rate : 48.0 kHz
    Frame rate : 31.250 FPS (1536 SPF)
    Compression mode : Lossy
    Stream size : 59.8 MiB (3%)
    Language : Korean
    Service kind : Complete Main
    Default : No
    Forced : No

    Text #1
    ID : 4
    Format : UTF-8
    Codec ID : S_TEXT/UTF8
    Codec ID/Info : UTF-8 Plain Text
    Duration : 1 h 4 min
    Bit rate : 117 b/s
    Count of elements : 765
    Stream size : 55.6 KiB (0%)
    Title : VIU
    Language : Thai
    Default : Yes
    Forced : No

    Text #2
    ID : 5
    Format : UTF-8
    Codec ID : S_TEXT/UTF8
    Codec ID/Info : UTF-8 Plain Text
    Duration : 1 h 4 min
    Bit rate : 126 b/s
    Count of elements : 718
    Stream size : 60.0 KiB (0%)
    Title : Netflix
    Language : Thai
    Default : No
    Forced : No



    01 http://www.filecondo.com/dl.php?f=la126e1LDYQ5
    02 http://www.filecondo.com/dl.php?f=bea3ed1LDYUu
    03 http://www.filecondo.com/dl.php?f=O7f1581LDYVB
    04 http://www.filecondo.com/dl.php?f=n2d6f81LDYXW
    05 http://www.filecondo.com/dl.php?f=n006ea1LDZ0B
    06 http://www.filecondo.com/dl.php?f=76a2621LDZ20
    07 http://www.filecondo.com/dl.php?f=E1d7d61LDZ3i
    08 http://www.filecondo.com/dl.php?f=58f9461LDZ3K
    09 http://www.filecondo.com/dl.php?f=595b581LDZ4H
    10 http://www.filecondo.com/dl.php?f=Da2cf51LDZ5F
    11 http://www.filecondo.com/dl.php?f=O6c4a41LDZ6E
    12 http://www.filecondo.com/dl.php?f=fc44131LDZ7y
    13 http://www.filecondo.com/dl.php?f=Fb1fa81LDZ8y
    14 http://www.filecondo.com/dl.php?f=p134271LDZ9u
    15 http://www.filecondo.com/dl.php?f=fc5b151LDZas
    16 http://www.filecondo.com/dl.php?f=9f98961LDZbw

  2. The Following User Says Thank You to Duckload.us For This Useful Post:

    kappa (05-07-2021)

  3. #2
    Administrators รูปส่วนตัว Duckload.us
    สมัครเมื่อ
    Dec 2010
    โพสต์
    126,470
    Thanks
    7
    Thanked 131,131 Times in 58,067 Posts
    แก้ไข [Sound:Thai/Korea]-[Sub:Thai (Viu+Netflix)]

  4. #3
    Junior Member
    สมัครเมื่อ
    Jun 2018
    โพสต์
    15
    Thanks
    0
    Thanked 0 Times in 0 Posts
    ขอบคุณมากๆครับ

  5. #4
    Senior Member
    สมัครเมื่อ
    Jul 2013
    โพสต์
    2,116
    Thanks
    0
    Thanked 0 Times in 0 Posts
    ขอบคุณครับผม

+ ตอบกลับกระทู้

ข้อมูลกระทู้

Users Browsing this Thread

ในขณะนี้มี 1 ท่านดูกระทู้อยู่. (0 สมาชิกและ 1 ผู้เยี่ยมชม)

     

กฎการโพสต์ข้อความ

  • ท่าน ไม่สามารถ ตั้งกระทู้ใหม่ได้
  • ท่าน ไม่สามารถ ตอบกระทู้ได้
  • ท่าน ไม่สามารถ แนบไฟล์ได้
  • ท่าน ไม่สามารถ แก้ไขข้อความโพสต์ได้
  • BB code สถานะ เปิด
  • Smilies สถานะ เปิด
  • [IMG] สถานะ เปิด
  • HTML สถานะ ปิด