+ ตอบกลับกระทู้
สรุปผลการค้นหา 1 ถึง 6 จากทั้งหมด 6
  1. #1
    Administrators รูปส่วนตัว Duckload.us
    สมัครเมื่อ
    Dec 2010
    โพสต์
    126,387
    Thanks
    7
    Thanked 130,975 Times in 58,016 Posts

    Thumbs up [ฝรั่ง]- [*ซับไทยมาสเตอร์จาก Disney+*] WandaVision (2021) Season 1 Complete (ตอนที่ 1-9 จบ) [1080p Disney+] [เสียงอังกฤษ 5.1] [บรรยายไทย + อังกฤษ] [ซับไทยมาสเตอร์] [ซับ PGS, IDX, SRT]

    แจ้งเพื่อทราบ!
    ซับไทยนี้ เป็นซับไทยมาสเตอร์จาก Disney+
    ที่ริบจากมาจากประเทศอินโดนีเซีย
    (ทาง Disney เขาเพิ่งปล่อยซับไทยออกที่ประเทศนั้นก่อน เพราะไทยยังไม่เปิดให้บริการ)
    หายห่วงเรื่องซับไทยมั่ว ไม่มีให้เห็นแน่นอนครับ








    เรื่องย่อ

    Wandavision จะนำสไตล์ของซิทคอมคลาสสิคมาผสมกับจักรวาลหนังของ Marvel แน่นอนจะเล่าเรื่องราวต่อจาก Endgame เเต่ว่าจะเล่าเรื่องราวเกี่ยวกับ Wanda Maximoff รับบทโดย Elizabeth Olsen และ Vision รับบทโดย Paul Bettany เป็นผู้ทรงพลังสองคนที่มีชีวิตสุดแสนเพอเฟ็คอยู่ในบ้ านชานเมือง แต่พวกเขาเริ่มสงสัยว่าทุกอย่างมันไม่ได้อย่างที่เห็ น

    Marvel studios WandaVision กำกับโดย Matt Shakman และซีรีย์นี้ยังเป็นซีรีย์ที่จะต่อเรื่องราวไปยัง Doctor Strange in the Multiverse of Madness





    ข้อมูลซีรีส์
    *
    General
    Unique ID : 186732040040096633373442622365576054516 (0x8C7B48623C9B9FA83475562B4421C6F4)
    Complete name : WandaVision.S01E01.1080p.DSNP.WEB-DL.DDP5.1.H.264-jaideejung007.mkv
    Format : Matroska
    Format version : Version 4
    File size : 1.35 GiB
    Duration : 26 min 33 s
    Overall bit rate mode : Variable
    Overall bit rate : 7 303 kb/s
    Movie name : WandaVision.S01E01.1080p.DSNP.WEB-DL.DDP5.1.H.264-jaideejung007
    Encoded date : UTC 2021-05-03 09:31:58
    Writing application : mkvmerge v50.0.0 ('Awakenings') 64-bit
    Writing library : libebml v1.4.0 + libmatroska v1.6.2

    Video
    ID : 1
    Format : AVC
    Format/Info : Advanced Video Codec
    Format profile : [email protected]
    Format settings : CABAC / 4 Ref Frames
    Format settings, CABAC : Yes
    Format settings, Reference frames : 4 frames
    Codec ID : V_MPEG4/ISO/AVC
    Duration : 26 min 33 s
    Bit rate mode : Variable
    Bit rate : 6 444 kb/s
    Maximum bit rate : 12.7 Mb/s
    Width : 1 920 pixels
    Height : 1 080 pixels
    Display aspect ratio : 16:9
    Frame rate mode : Constant
    Frame rate : 23.976 (24000/1001) FPS
    Color space : YUV
    Chroma subsampling : 4:2:0
    Bit depth : 8 bits
    Scan type : Progressive
    Bits/(Pixel*Frame) : 0.130
    Stream size : 1.19 GiB (88%)
    Title : WandaVision.S01E01.1080p.DSNP.WEB-DL.DDP5.1.H.264-jaideejung007
    Language : English
    Default : Yes
    Forced : No
    Color range : Limited
    Color primaries : BT.709
    Transfer characteristics : BT.709
    Matrix coefficients : BT.709

    Audio
    ID : 2
    Format : E-AC-3 JOC
    Format/Info : Enhanced AC-3 with Joint Object Coding
    Commercial name : Dolby Digital Plus with Dolby Atmos
    Codec ID : A_EAC3
    Duration : 26 min 33 s
    Bit rate mode : Constant
    Bit rate : 768 kb/s
    Channel(s) : 6 channels
    Channel layout : L R C LFE Ls Rs
    Sampling rate : 48.0 kHz
    Frame rate : 31.250 FPS (1536 SPF)
    Compression mode : Lossy
    Stream size : 146 MiB (11%)
    Title : English
    Language : English
    Service kind : Complete Main
    Default : Yes
    Forced : No
    Complexity index : 16
    Number of dynamic objects : 15
    Bed channel count : 1 channel
    Bed channel configuration : LFE

    Text #1
    ID : 3
    Format : VobSub
    Codec ID : S_VOBSUB
    Codec ID/Info : Picture based subtitle format used on DVDs
    Duration : 23 min 21 s
    Bit rate : 9 988 b/s
    Count of elements : 360
    Stream size : 1.67 MiB (0%)
    Title : Thai
    Language : Thai
    Default : Yes
    Forced : Yes

    Text #2
    ID : 4
    Format : VobSub
    Codec ID : S_VOBSUB
    Codec ID/Info : Picture based subtitle format used on DVDs
    Duration : 23 min 21 s
    Bit rate : 9 971 b/s
    Count of elements : 360
    Stream size : 1.67 MiB (0%)
    Title : Thai Yellow
    Language : Thai
    Default : No
    Forced : No

    Text #3
    ID : 5
    Format : PGS
    Codec ID : S_HDMV/PGS
    Codec ID/Info : Picture based subtitle format used on BDs/HD-DVDs
    Duration : 23 min 21 s
    Bit rate : 40.5 kb/s
    Count of elements : 720
    Stream size : 6.76 MiB (0%)
    Title : Thai PGS
    Language : Thai
    Default : No
    Forced : No

    Text #4
    ID : 6
    Format : PGS
    Codec ID : S_HDMV/PGS
    Codec ID/Info : Picture based subtitle format used on BDs/HD-DVDs
    Duration : 23 min 21 s
    Bit rate : 40.5 kb/s
    Count of elements : 720
    Stream size : 6.76 MiB (0%)
    Title : Thai PGS OUT
    Language : Thai
    Default : No
    Forced : No

    Text #5
    ID : 7
    Format : UTF-8
    Codec ID : S_TEXT/UTF8
    Codec ID/Info : UTF-8 Plain Text
    Duration : 21 min 0 s
    Bit rate : 92 b/s
    Count of elements : 448
    Stream size : 14.2 KiB (0%)
    Title : English (SDH)
    Language : English
    Default : No
    Forced : No






    ภาพตัวอย่าง แคปจากตัวไฟล์ซีรีส์





    ตัวอย่างภาพยนตร์



    เล่าสู่กันฟัง
    บรรยายไทยโดย SDI Media (Disney+)
    เรียบเรียง/พิสูจน์อักษรโดย jaideejung007

    แจ้งเพื่อทราบ: กรณีเปิดไฟล์นี้กับคอมพิวเตอร์แล้วเสียงไม่ออก ซับไม่ขึ้น หรือซับดูเตี้ย ๆ ตัน ๆ เกินความเป็นจริง แนะนำให้เปิดด้วยโปรแกรม PotPlayer เพราะโปรแกรมนี้จะรองรับไฟล์ครอบจักรวาลและที่สำคัญม ีปัญหาในการเล่นน้อยที่สุดกว่าโปรแกรมอื่น ๆ ควรมีติดเครื่องไว้อย่างยิ่ง

    แจ้งเพื่อทราบ 2: เสียงเป็นแบบ Dolby Digital Plus with Dolby Atmos ซึ่งเป็น Source มาจากต่างประเทศ อาจมีเครื่องเล่นบางตัวไม่รองรับ แต่ถ้าเปิดกับคอมพิวเตอร์ รองรับสมบูรณ์ 100% ก่อนดาวน์โหลด รบกวนตรวจสอบให้ละเอียดด้วยนะครับ

    แจ้งเพื่อทราบ 3: ซับไทย (IDX, PGS) สามารถเปิดได้ทุกเครื่องเล่น การันตี 99.99%

    แจ้งเพื่อทราบ 4: ทุกไฟล์ที่แจกในนี้ มี source มาจากต่างประเทศ (Disney+) คือ ไม่ตัด ไม่เซ็นเซอร์ครับ ไฟล์นี้ก็เช่นกัน


    Download:cornfile
    WandaVision.S01E01.1080p.DSNP.WEB-DL.DDP5.1.H.264-jaideejung007.mkv - 1.4 GB
    WandaVision.S01E02.1080p.DSNP.WEB-DL.DDP5.1.H.264-jaideejung007.mkv - 1.8 GB
    WandaVision.S01E03.1080p.DSNP.WEB-DL.DDP5.1.H.264-jaideejung007.mkv - 1.6 GB
    WandaVision.S01E04.1080p.DSNP.WEB-DL.DDP5.1.H.264-jaideejung007.mkv - 1.7 GB
    WandaVision.S01E05.1080p.DSNP.WEB-DL.DDP5.1.H.264-jaideejung007.mkv - 2.0 GB
    WandaVision.S01E06.1080p.DSNP.WEB-DL.DDP5.1.H.264-jaideejung007.mkv - 2.0 GB
    WandaVision.S01E07.1080p.DSNP.WEB-DL.DDP5.1.H.264-jaideejung007.mkv - 1.9 GB
    WandaVision.S01E08.1080p.DSNP.WEB-DL.DDP5.1.H.264-jaideejung007.mkv - 2.2 GB
    WandaVision.S01E09.1080p.DSNP.WEB-DL.DDP5.1.H.264-jaideejung007.mkv - 2.5 GB

    Download:filecondo
    1 http://www.filecondo.com/dl.php?f=y22baa1LDPAR
    2 http://www.filecondo.com/dl.php?f=R65a271LDPDS
    3 http://www.filecondo.com/dl.php?f=Na05c11LDPGQ
    4 http://www.filecondo.com/dl.php?f=Ldfc001LDPHK
    5 http://www.filecondo.com/dl.php?f=059c3f1LDPIA
    6 http://www.filecondo.com/dl.php?f=Sf3d211LDPJ2
    7 http://www.filecondo.com/dl.php?f=O449901LDPK0
    8 http://www.filecondo.com/dl.php?f=2e63931LDPLW
    9 http://www.filecondo.com/dl.php?f=N387f11LDPMW

  2. The Following 4 Users Say Thank You to Duckload.us For This Useful Post:

    gaszolineskywalker (05-06-2021), nananass (05-05-2021), rthrlimited (05-05-2021), Wesker_TOT (05-05-2021)

  3. #2
    Senior Member
    สมัครเมื่อ
    Jul 2013
    โพสต์
    2,092
    Thanks
    0
    Thanked 0 Times in 0 Posts
    ขอบคุณครับ เดี๋ยวรอเสียงไทย ทีเดียวเลย หุหุ

  4. #3
    Senior Member
    สมัครเมื่อ
    Dec 2013
    โพสต์
    2,755
    Thanks
    4,675
    Thanked 0 Times in 0 Posts
    ขอบคุณครับ...

  5. #4
    Senior Member
    สมัครเมื่อ
    Oct 2012
    โพสต์
    1,522
    Thanks
    2,451
    Thanked 0 Times in 0 Posts
    ขอบคุณครับ

  6. #5
    Member
    สมัครเมื่อ
    Jan 2014
    โพสต์
    74
    Thanks
    0
    Thanked 0 Times in 0 Posts
    ซับบางตอนแปลกๆนะครับ chaos magic = เวทอลเวง

  7. #6
    Senior Member
    สมัครเมื่อ
    Jul 2012
    โพสต์
    7,471
    Thanks
    0
    Thanked 0 Times in 0 Posts
    ขอบคุณมากจ้า

+ ตอบกลับกระทู้

ข้อมูลกระทู้

Users Browsing this Thread

ในขณะนี้มี 1 ท่านดูกระทู้อยู่. (0 สมาชิกและ 1 ผู้เยี่ยมชม)

     

กฎการโพสต์ข้อความ

  • ท่าน ไม่สามารถ ตั้งกระทู้ใหม่ได้
  • ท่าน ไม่สามารถ ตอบกระทู้ได้
  • ท่าน ไม่สามารถ แนบไฟล์ได้
  • ท่าน ไม่สามารถ แก้ไขข้อความโพสต์ได้
  • BB code สถานะ เปิด
  • Smilies สถานะ เปิด
  • [IMG] สถานะ เปิด
  • HTML สถานะ ปิด