+ ตอบกลับกระทู้
สรุปผลการค้นหา 1 ถึง 3 จากทั้งหมด 3
  1. #1
    Administrators รูปส่วนตัว Duckload.us
    สมัครเมื่อ
    Dec 2010
    โพสต์
    135,809
    Thanks
    7
    Thanked 140,592 Times in 61,720 Posts

    Lightbulb [เกาหลี]-[Suspicious Partner คู่รัก คู่ลุ้น Ji Chang Wook, Nam Ji Hyun, Choi Tae Joon, Kwon Nara, Kim Ye Won TH Ep.1-16/End]-WEB-DL.H.264.1080p. [From HD-TV]-[Sound:Thai/Korea]-[Sub:Thai]




    ซีรี่ย์เกาหลี: Suspicious Partner, Love in Trouble
    ชื่อภาษาไทย: คู่รัก คู่ลุ้น
    ประเภท: Romance, Comedy, Legal, Crime
    จำนวนตอน: 20
    นำแสดงโดย: Ji Chang Wook, Nam Ji Hyun, Choi Tae Joon, Kwon Nara, Kim Ye Won
    ผู้กำกับ: Park Sun Ho, Jung Dong Yoon
    เขียนบทโดย: Jo Seung Hee
    ออกอากาศทางสถานีโทรทัศน์: VIU
    เริ่มออกอากาศ: 13 มีนาคม 2021
    เวลาออกอากาศ: ทุกวันเสาร์ & วันอาทิตย์ เวลา 08:00 น.
    นักแสดง:
    Ji Chang Wook as Noh Ji Wook (31, prosecutor)
    Oh Han Kyul as child Ji Wook
    Son Sang Yun as teen Ji Wook
    Nam Ji Hyun as Eun Bong Hee (27, lawyer)
    Choi Myung Bin as young Bong Hee
    Choi Tae Joon as Ji Eun Hyuk (31, lawyer)
    Kwon Bin as young Eun Hyuk
    Kwon Nara as Cha Yoo Jung (31, prosecutor)
    Ryu Han Bi as young Yoo Jung
    People around Noh Ji Wook
    Lee Duk Hwa as Byun Young Hee (62, Young Suk's friend)
    Nam Ki Ae as Hong Bok Ja (58, Ji Wook's mother)
    Kim Hong Pa as Jang Moo Young (62, Chief of Prosecutor)
    Jang Hyuk Jin as Bang Eun Ho (46, Ji Wook's friend)
    Jo Seung Yun as Noh Young Suk (37, Ji Wook's late father)
    People around Eun Bong Hee
    Yoon Bok In as Park Young Soon (56, Bong Hee's mother)
    Dong Ha as Jung Hyun Soo (Bong Hee's client/courier service worker)
    Lee Do Yup as Eun Man Soo (Bong Hee's late father)
    People from Judicial Training Institute
    Kim Ye Won as Na Ji Hae (29, Bong Hee's rival)
    Heo Joon Suk as Woo Hee Kyu (33)
    Shim Eun Woo as Hong Cha Eun (30)
    Hwang Chan Sung as Jang Hee Joon (28, Bong Hee's ex-boyfriend/Moo Young's son)
    Extended Cast
    Jin Joo Hyung as Go Chan Ho (forensic officer)
    Choi Hong Il as vice-chief of prosecutor
    Kim Gi Nam as Yoo Jung's superior
    Jang Won Young as pervert guy from subway
    Park Gyu Young as Park So Young (the woman whom Hyun Soo loved)
    Kim Ye Joon as Kim Jae Hong (the child who witnessed the murder, ep 32~36)
    Sysopsis: เรื่องราวของอัยการหนุ่มหล่อ เสน่ห์แพรวพราว รับบทโดย จีชางวุค และเจ้าหน้าที่ของกระทรวงยุติธรรมที่เพิ่งเข้ามาทำงา นหมาด ๆ รับบทโดย นัมจีฮยอน ผู้รักความยุติธรรม เธอเป็นคนร่าเริงและมีพลังด้านบวกแบบไร้ขีดจำกัด ในขณะที่เขาอัยการหนุ่มหล่อ กลับเป็นคนจู้จี้กจุกจิกเรื่องมากสุดๆ เขาและเธอต้องมาทำงานร่วมกัน ในคดีฆาตกรรมที่คนร้ายเป็นผู้ป่วยความจำเสื่อม และเพราะพวกเขาต้องทำงานอยู่จนดึกด้วยกันบ่อยๆ ทำให้เกิดซีนโรแมนติกกุ๊กกิ๊ก แบบที่ไม่คาดคิดว่าจะเจอในละครแนวกฎหมาย มาติดตามชมกันได้ในซีรีย์เกาหลี Suspicious Partner คู่รัก คู่ลุ้น
    Credit: franky

    General
    Unique ID : 144683633296899966130194588385888837590 (0x6CD90DDEEE9F5851F3AB62CB15DA1FD6)
    Complete name : I:Suspicious Partner คู่รัก คู่ลุ้นSuspicious.Partner.2017.S01E09.1080p.NF.WEB-DL.DDP2.0.x264.mkv
    Format : Matroska
    Format version : Version 4
    File size : 2.83 GiB
    Duration : 1 h 3 min
    Overall bit rate : 6 388 kb/s
    Encoded date : UTC 2021-04-30 19:14:29
    Writing application : mkvmerge v19.0.0 ('Brave Captain') 64-bit
    Writing library : libebml v1.3.5 + libmatroska v1.4.8

    Video
    ID : 1
    Format : AVC
    Format/Info : Advanced Video Codec
    Format profile : [email protected]
    Format settings : 1 Ref Frames
    Format settings, CABAC : No
    Format settings, Reference fra : 1 frame
    Codec ID : V_MPEG4/ISO/AVC
    Duration : 1 h 3 min
    Bit rate : 6 055 kb/s
    Width : 1 920 pixels
    Height : 1 080 pixels
    Display aspect ratio : 16:9
    Frame rate mode : Constant
    Frame rate : 23.976 (24000/1001) FPS
    Color space : YUV
    Chroma subsampling : 4:2:0
    Bit depth : 8 bits
    Scan type : Progressive
    Bits/(Pixel*Frame) : 0.122
    Stream size : 2.68 GiB (95%)
    Default : Yes
    Forced : No

    Audio #1
    ID : 2
    Format : AC-3
    Format/Info : Audio Coding 3
    Commercial name : Dolby Digital
    Codec ID : A_AC3
    Duration : 1 h 3 min
    Bit rate mode : Constant
    Bit rate : 192 kb/s
    Channel(s) : 2 channels
    Channel layout : L R
    Sampling rate : 48.0 kHz
    Frame rate : 31.250 FPS (1536 SPF)
    Compression mode : Lossy
    Delay relative to video : 31 ms
    Stream size : 87.0 MiB (3%)
    Language : Thai
    Service kind : Complete Main
    Default : Yes
    Forced : No

    Audio #2
    ID : 3
    Format : E-AC-3
    Format/Info : Enhanced AC-3
    Commercial name : Dolby Digital Plus
    Codec ID : A_EAC3
    Duration : 1 h 3 min
    Bit rate mode : Constant
    Bit rate : 128 kb/s
    Channel(s) : 2 channels
    Channel layout : L R
    Sampling rate : 48.0 kHz
    Frame rate : 31.250 FPS (1536 SPF)
    Compression mode : Lossy
    Stream size : 58.0 MiB (2%)
    Language : Korean
    Service kind : Complete Main
    Default : No
    Forced : No

    Text #1
    ID : 4
    Format : UTF-8
    Codec ID : S_TEXT/UTF8
    Codec ID/Info : UTF-8 Plain Text
    Duration : 1 h 2 min
    Bit rate : 133 b/s
    Count of elements : 826
    Stream size : 61.4 KiB (0%)
    Language : Thai
    Default : Yes
    Forced : No

    Text #2
    ID : 5
    Format : PGS
    Muxing mode : zlib
    Codec ID : S_HDMV/PGS
    Codec ID/Info : Picture based subtitle format used on BDs/HD-DVDs
    Duration : 1 h 2 min
    Bit rate : 23.6 kb/s
    Count of elements : 1652
    Stream size : 10.6 MiB (0%)
    Language : Thai
    Default : No
    Forced : No



    01 http://www.filecondo.com/dl.php?f=2dd0d41LDZPf
    02 http://www.filecondo.com/dl.php?f=pfaea81LDZR3
    03 http://www.filecondo.com/dl.php?f=Z5e2351LDZSa
    04 http://www.filecondo.com/dl.php?f=03fed41LDZTH
    05 http://www.filecondo.com/dl.php?f=m1e0121LDZU6
    06 http://www.filecondo.com/dl.php?f=Fad6151LDZV2
    07 http://www.filecondo.com/dl.php?f=fc8a571LDZVY
    08 http://www.filecondo.com/dl.php?f=gaba5a1LDZWV
    09 http://www.filecondo.com/dl.php?f=r53d181LDZXY
    10 http://www.filecondo.com/dl.php?f=652b451LDZYU
    11 http://www.filecondo.com/dl.php?f=j6ad2f1LE00b
    12 http://www.filecondo.com/dl.php?f=Oc5e7f1LE015
    13 http://www.filecondo.com/dl.php?f=Lcd6ca1LE02k
    14 http://www.filecondo.com/dl.php?f=E5cd6b1LE03i
    15 http://www.filecondo.com/dl.php?f=qe06c01LE04t
    16 http://www.filecondo.com/dl.php?f=Wc14611LE05E
    17 http://www.filecondo.com/dl.php?f=Y1c1fb1LE06S
    18 http://www.filecondo.com/dl.php?f=Cf211c1LE07B
    19 http://www.filecondo.com/dl.php?f=R0b63d1LE08x
    20 http://www.filecondo.com/dl.php?f=k8c1ec1LE09y

  2. The Following 2 Users Say Thank You to Duckload.us For This Useful Post:

    F2UMaH6398 (01-08-2022), kappa (02-10-2022)

  3. #2
    Member
    สมัครเมื่อ
    Jun 2018
    โพสต์
    78
    Thanks
    0
    Thanked 0 Times in 0 Posts
    ขอบคุณมากๆครับ

  4. #3
    Senior Member
    สมัครเมื่อ
    Aug 2012
    โพสต์
    453
    Thanks
    0
    Thanked 0 Times in 0 Posts
    ขอบคุณครับ

+ ตอบกลับกระทู้

ข้อมูลกระทู้

Users Browsing this Thread

ในขณะนี้มี 1 ท่านดูกระทู้อยู่. (0 สมาชิกและ 1 ผู้เยี่ยมชม)

     

กฎการโพสต์ข้อความ

  • ท่าน ไม่สามารถ ตั้งกระทู้ใหม่ได้
  • ท่าน ไม่สามารถ ตอบกระทู้ได้
  • ท่าน ไม่สามารถ แนบไฟล์ได้
  • ท่าน ไม่สามารถ แก้ไขข้อความโพสต์ได้
  • BB code สถานะ เปิด
  • Smilies สถานะ เปิด
  • [IMG] สถานะ เปิด
  • HTML สถานะ ปิด