+ ตอบกลับกระทู้
สรุปผลการค้นหา 1 ถึง 3 จากทั้งหมด 3
  1. #1
    Administrators รูปส่วนตัว Duckload.us
    สมัครเมื่อ
    Dec 2010
    โพสต์
    127,911
    Thanks
    7
    Thanked 132,100 Times in 58,488 Posts

    Thumbs up [เสียงไทยมาสเตอร์ ] Godzilla vs Kong 2021.1080p WEB.Rip H.264 .En.Th. [ เสียง.ไทย-อังกฤษ][ บรรยาย.ไทย-อังกฤษ ]


    นักแสดง : Alexander Skarsgå rd, Millie Bobby Brown, Rebecca Hall
    ผู้กำกับ : Adam Wingard
    ปี : 2021
    ประเทศ : USA
    เวลา : 113 นาที
    ประเภท : Action
    เรทติ้ง : 6.5/10
    เข้าฉาย : 31/03/2021
    เรื่องย่อ : เรื่องราวการปะทะกันระหว่างคู่ต่อสู้แห่งตำนานที่ต่อ สู้กันอย่างน่าตื่นเต้นมาย่างยาวนาน โดยมีชะตากรรมของโลกแขวนอยู่บนเส้นขนาน คอง และผู้ดูแลของเขาสัญญากันว่าจะยอมผจญภัยเสี่ยงตายเพื ่อหาบ้านที่แท้จริงของเขา โดยมี จีอา (เคย์ลี ฮอตเทิล) สาวน้อยเด็กกำพร้าร่วมทางไปกับพวกเขาจนเกิดความผูกพั นอย่างแน่นแฟ้นและไม่เหมือนใคร แต่พวกเขากลับต้องเผชิญหน้ากับ ก็อดซิลล่า ที่กำลังคลุ้มคลั่ง ปล่อยรัศมีการทำลายล้างกระจายไปทั่วโลก การปะทะกันระหว่างสองยักษ์ใหญ่เกิดจากพลังที่มองไม่เ ห็น ซึ่งเป็นจุดเริ่มต้นของปริศนาที่ซ่อนอยู่ในใจกลางของ โลก

    **************************************************

    General
    Unique ID : 235097417445424963963913109149694047636 (0xB0DE1D98A86D79F74EBC59905DB83594)
    Complete name : D:\Godzilla vs Kong 2021.1080p WEB.Rip H.264 .En.Th.kiatplk.mkv
    Format : Matroska
    Format version : Version 4 / Version 2
    File size : 4.38 GiB
    Duration : 1 h 53 min
    Overall bit rate mode : Variable
    Overall bit rate : 5 548 kb/s
    Movie name : Godzilla vs Kong 2021.1080p WEB.Rip H.264 .En.Th.kiatplk
    Encoded date : UTC 2021-05-08 14:08:21
    Writing application : mkvmerge v50.0.0 ('Awakenings') 64-bit
    Writing library : libebml v1.4.0 + libmatroska v1.6.2

    Video
    ID : 1
    Format : AVC
    Format/Info : Advanced Video Codec
    Format profile : [email protected]
    Format settings, CABAC : Yes
    Format settings, RefFrames : 4 frames
    Codec ID : V_MPEG4/ISO/AVC
    Duration : 1 h 53 min
    Bit rate mode : Variable
    Bit rate : 4 546 kb/s
    Maximum bit rate : 62.5 Mb/s
    Width : 1 920 pixels
    Height : 800 pixels
    Display aspect ratio : 2.40:1
    Frame rate mode : Constant
    Frame rate : 23.976 (24000/1001) FPS
    Color space : YUV
    Chroma subsampling : 4:2:0
    Bit depth : 8 bits
    Scan type : Progressive
    Bits/(Pixel*Frame) : 0.123
    Stream size : 3.59 GiB (82%)
    Writing library : x264 core 161 r3018 db0d417
    Encoding settings : cabac=1 / ref=3 / deblock=1:-1:-1 / analyse=0x3:0x113 / me=hex / subme=7 / psy=1 / psy_rd=1.00:0.15 / mixed_ref=1 / me_range=16 / chroma_me=1 / trellis=1 / 8x8dct=1 / cqm=0 / deadzone=21,11 / fast_pskip=1 / chroma_qp_offset=-3 / threads=12 / lookahead_threads=2 / sliced_threads=0 / nr=0 / decimate=1 / interlaced=0 / bluray_compat=0 / constrained_intra=0 / bframes=3 / b_pyramid=2 / b_adapt=1 / b_bias=0 / direct=1 / weightb=1 / open_gop=0 / weightp=2 / keyint=240 / keyint_min=24 / scenecut=40 / intra_refresh=0 / rc_lookahead=40 / rc=2pass / mbtree=1 / bitrate=4546 / ratetol=1.0 / qcomp=0.60 / qpmin=0 / qpmax=69 / qpstep=4 / cplxblur=20.0 / qblur=0.5 / vbv_maxrate=62500 / vbv_bufsize=62500 / nal_hrd=vbr / filler=0 / ip_ratio=1.40 / aq=1:1.00
    Default : Yes
    Forced : No
    Color range : Limited
    Color primaries : BT.709
    Transfer characteristics : BT.709
    Matrix coefficients : BT.709

    Audio #1
    ID : 2
    Format : E-AC-3
    Format/Info : Enhanced Audio Coding 3
    Format profile : E-AC-3+Atmos / E-AC-3
    Format settings, Endianness : Big
    Codec ID : A_EAC3
    Duration : 1 h 53 min
    Bit rate mode : Constant
    Bit rate : 768 kb/s
    Channel(s) : 15 objects / 6 channels
    Channel positions : 15 objects / Front: L C R, Side: L R, LFE
    Sampling rate : 48.0 kHz
    Frame rate : 187.500 FPS (256 SPF)
    Compression mode : Lossy
    Delay relative to video : 1 s 10 ms
    Stream size : 621 MiB (14%)
    Title : English
    Language : English
    Service kind : Complete Main
    Default : Yes
    Forced : No

    Audio #2
    ID : 9
    Format : AAC
    Format/Info : Advanced Audio Codec
    Format profile : LC
    Codec ID : A_AAC
    Duration : 1 h 52 min
    Bit rate : 192 kb/s
    Channel(s) : 2 channels
    Channel positions : Front: L R
    Sampling rate : 44.1 kHz
    Frame rate : 43.066 FPS (1024 SPF)
    Compression mode : Lossy
    Delay relative to video : 11 s 0 ms
    Stream size : 153 MiB (3%)
    Language : Thai
    Default : No
    Forced : No

    Text #1
    ID : 3
    Format : UTF-8
    Codec ID : S_TEXT/UTF8
    Codec ID/Info : UTF-8 Plain Text
    Duration : 1 h 45 min
    Bit rate : 48 b/s
    Count of elements : 1425
    Stream size : 37.5 KiB (0%)
    Title : SDH
    Language : English
    Default : No
    Forced : No

    Text #2
    ID : 4
    Format : PGS
    Muxing mode : zlib
    Codec ID : S_HDMV/PGS
    Codec ID/Info : Picture based subtitle format used on BDs/HD-DVDs
    Duration : 1 h 45 min
    Bit rate : 33.6 kb/s
    Count of elements : 2850
    Stream size : 25.4 MiB (1%)
    Title : SDH
    Language : English
    Default : No
    Forced : No

    Text #3
    ID : 5
    Format : UTF-8
    Codec ID : S_TEXT/UTF8
    Codec ID/Info : UTF-8 Plain Text
    Duration : 1 h 44 min
    Bit rate : 85 b/s
    Count of elements : 884
    Stream size : 65.5 KiB (0%)
    Language : Thai
    Default : No
    Forced : No

    Text #4
    ID : 6
    Format : PGS
    Muxing mode : zlib
    Codec ID : S_HDMV/PGS
    Codec ID/Info : Picture based subtitle format used on BDs/HD-DVDs
    Duration : 1 h 44 min
    Bit rate : 21.2 kb/s
    Count of elements : 1768
    Stream size : 15.8 MiB (0%)
    Language : Thai
    Default : Yes
    Forced : No

    Text #5
    ID : 7
    Format : PGS
    Muxing mode : zlib
    Codec ID : S_HDMV/PGS
    Codec ID/Info : Picture based subtitle format used on BDs/HD-DVDs
    Duration : 1 h 44 min
    Bit rate : 21.5 kb/s
    Count of elements : 1768
    Stream size : 16.1 MiB (0%)
    Title : Thai1080p.Angsana
    Language : Thai
    Default : No
    Forced : No

    Text #6
    ID : 8
    Format : PGS
    Muxing mode : zlib
    Codec ID : S_HDMV/PGS
    Codec ID/Info : Picture based subtitle format used on BDs/HD-DVDs
    Duration : 1 h 44 min
    Bit rate : 21.5 kb/s
    Count of elements : 1768
    Stream size : 16.1 MiB (0%)
    Title : Thai1080p.Angsana [ yellow ]
    Language : Thai
    Default : No
    Forced : No



    [พากย์ไทย+บรรยาย.ไทย มาสเตอร์] 7.7 GB
    Download:cornfile
    http://cornfile.com/9ent4jv4uz6k
    Download:filecondo
    http://www.filecondo.com/dl.php?f=Meefef1LFGLi

    [พากย์ไทย+บรรยาย.ไทย มาสเตอร์] 4.4 GB
    Download:cornfile
    http://cornfile.com/9y6tlrsjk5vt
    Download:filecondo
    http://www.filecondo.com/dl.php?f=593ee11LFFsu


    [พากย์ไทยมาสเตอร์]
    Download:cornfile
    http://cornfile.com/1rsbzgcwemr1
    Download:filecondo
    http://www.filecondo.com/dl.php?f=uc09721LFjrt

    [บรรยายไทยมาสเตอร์]
    Download:cornfile
    http://cornfile.com/cn0jbvckuf34
    Download:filecondo
    http://www.filecondo.com/dl.php?f=L715871LFjtn

  2. The Following 2 Users Say Thank You to Duckload.us For This Useful Post:

    bigbang06 (05-10-2021), noi54 (05-10-2021)

  3. #2
    Senior Member
    สมัครเมื่อ
    Jul 2013
    โพสต์
    2,281
    Thanks
    0
    Thanked 0 Times in 0 Posts
    ขอบคุณครับ

  4. #3
    Senior Member
    สมัครเมื่อ
    Oct 2013
    โพสต์
    1,924
    Thanks
    0
    Thanked 0 Times in 0 Posts
    ขอบคุณครับ

+ ตอบกลับกระทู้

ข้อมูลกระทู้

Users Browsing this Thread

ในขณะนี้มี 1 ท่านดูกระทู้อยู่. (0 สมาชิกและ 1 ผู้เยี่ยมชม)

     

กฎการโพสต์ข้อความ

  • ท่าน ไม่สามารถ ตั้งกระทู้ใหม่ได้
  • ท่าน ไม่สามารถ ตอบกระทู้ได้
  • ท่าน ไม่สามารถ แนบไฟล์ได้
  • ท่าน ไม่สามารถ แก้ไขข้อความโพสต์ได้
  • BB code สถานะ เปิด
  • Smilies สถานะ เปิด
  • [IMG] สถานะ เปิด
  • HTML สถานะ ปิด