+ ตอบกลับกระทู้
สรุปผลการค้นหา 1 ถึง 3 จากทั้งหมด 3
  1. #1
    Administrators รูปส่วนตัว Duckload.us
    สมัครเมื่อ
    Dec 2010
    โพสต์
    127,911
    Thanks
    7
    Thanked 132,098 Times in 58,486 Posts

    Thumbs up [ฝรั่ง]-A Wrinkle in Time (2018) - ย่นเวลาทะลุมิติ-Blu-ray.H.264.1080p. [Modified]-[พากย์ไทย-อังกฤษ-บรรยายไทยคมชัด PGS]




    เม็ค เมอร์รี (สตรอม เรียด) คือนักเรียนชั้นมัธยมผู้ที่กำลังประสบปัญหาการเห็นคุ ณค่าในตัวเอง และรู้สึกแปลกแยกจากสิ่งที่เธอเป็นอยู่ ในฐานะลูกสาวของนักฟิสิกส์ชื่อดังระดับโลก เธอมีพรสวรรค์ที่แสนชาญฉลาดและโดดเด่น เช่นเดียวกับน้องชายของเม็ค ชาร์ล วอลเลซ (เดริค แม็คเคป) แต่เธอยังรู้จักตัวเองมากพอ เรื่องราวยิ่งแย่ลงเมื่อ Mr.Murry (คริส ไพน์) ได้หายตัวไป นั่นสร้างความเจ็บปวดให้กับเม็คและทำให้แม่ของเธอ (กูกู เอ็มบาธา รอว์) เสียใจเป็นอย่างมาก

    ชาร์ล วอลเลซ ได้แนะนำให้เม็คและเพื่อนร่วมชั้นของเธอ เคลวิน (เลวี มิลเลอร์) รู้จักกับ 3 ผู้นำทางศักดิ์สิทธิ์ Mrs.Which (โอปราห์ วินฟรีย์), Mrs.Whatsit (รีส วินเธอร์สพูน) และ Mrs.Who (มินดี้ คาร์ลลิง) ผู้ที่เดินทางมายังโลกเพื่อช่วยพวกเขาตามหาพ่อที่หาย ไป นั่นทำให้พวกเขาต้องร่วมออกเดินทางไปทำภารกิจที่แสนอ ันตราย เดินทางผ่านรอยย่นของเวลาและอวกาศและรู้จักกันในชื่อ Tessering

    พวกเขาถูกส่งไปยังโลกที่อยู่นอกเหนือจากจินตนาการ และพวกเขาต้องเผชิญหน้ากับปีศาจสุดร้ายกาจ เพื่อให้พวกเขากลับไปยังโลก เม็ค ต้องมองลึกเข้าไปในตัวเองและยอมรับในข้อบกพร่องของตั วเอง เพื่อสร้างความเข้มแข็งในการเอาชนะความมืดมิดที่กำลั งเข้ามาใกล้

    Format : Matroska
    Format version : Version 4
    File size : 3.52 GiB
    Duration : 1 h 49 min
    Overall bit rate : 4 594 kb/s
    Movie name : A.Wrinkle.in.Time.2018.1080p.BluRay.H264.AC3-Ferdi125
    Encoded date : UTC 2021-05-08 14:04:26
    Writing application : mkvmerge v55.0.0 ('Waiting For Space') 64-bit
    Writing library : libebml v1.4.2 + libmatroska v1.6.4

    Video
    ID : 1
    Format : AVC
    Format/Info : Advanced Video Codec
    Format profile : [email protected]
    Format settings : CABAC / 4 Ref Frames
    Format settings, CABAC : Yes
    Format settings, Reference frames : 4 frames
    Codec ID : V_MPEG4/ISO/AVC
    Duration : 1 h 49 min
    Bit rate : 3 500 kb/s
    Width : 1 920 pixels
    Height : 808 pixels
    Display aspect ratio : 2.40:1
    Frame rate mode : Constant
    Frame rate : 23.976 (24000/1001) FPS
    Color space : YUV
    Chroma subsampling : 4:2:0
    Bit depth : 8 bits
    Scan type : Progressive
    Bits/(Pixel*Frame) : 0.094
    Stream size : 2.66 GiB (76%)
    Writing library : x264 core 157 r2935 545de2f
    Encoding settings : cabac=1 / ref=1 / deblock=1:0:0 / analyse=0x3:0x113 / me=hex / subme=2 / psy=1 / psy_rd=1.00:0.00 / mixed_ref=0 / me_range=16 / chroma_me=1 / trellis=0 / 8x8dct=1 / cqm=0 / deadzone=21,11 / fast_pskip=1 / chroma_qp_offset=0 / threads=10 / lookahead_threads=3 / sliced_threads=0 / nr=0 / decimate=1 / interlaced=0 / bluray_compat=0 / constrained_intra=0 / bframes=3 / b_pyramid=2 / b_adapt=1 / b_bias=0 / direct=1 / weightb=1 / open_gop=0 / weightp=1 / keyint=240 / keyint_min=24 / scenecut=40 / intra_refresh=0 / rc_lookahead=10 / rc=abr / mbtree=1 / bitrate=3500 / ratetol=1.0 / qcomp=0.60 / qpmin=0 / qpmax=69 / qpstep=4 / vbv_maxrate=62500 / vbv_bufsize=78125 / nal_hrd=none / filler=0 / ip_ratio=1.40 / aq=1:1.00
    Default : Yes
    Forced : No
    Color range : Limited
    Color primaries : BT.709
    Transfer characteristics : BT.709
    Matrix coefficients : BT.709

    Audio #1
    ID : 2
    Format : AC-3
    Format/Info : Audio Coding 3
    Commercial name : Dolby Digital
    Codec ID : A_AC3
    Duration : 1 h 49 min
    Bit rate mode : Constant
    Bit rate : 448 kb/s
    Channel(s) : 2 channels
    Channel layout : L R
    Sampling rate : 48.0 kHz
    Frame rate : 31.250 FPS (1536 SPF)
    Compression mode : Lossy
    Delay relative to video : -48 ms
    Stream size : 351 MiB (10%)
    Language : Thai
    Service kind : Complete Main
    Default : Yes
    Forced : Yes

    Audio #2
    ID : 3
    Format : E-AC-3
    Format/Info : Enhanced AC-3
    Commercial name : Dolby Digital Plus
    Codec ID : A_EAC3
    Duration : 1 h 49 min
    Bit rate mode : Constant
    Bit rate : 640 kb/s
    Channel(s) : 6 channels
    Channel layout : L R C LFE Ls Rs
    Sampling rate : 48.0 kHz
    Frame rate : 31.250 FPS (1536 SPF)
    Compression mode : Lossy
    Delay relative to video : -48 ms
    Stream size : 502 MiB (14%)
    Language : English
    Service kind : Complete Main
    Default : No
    Forced : No

    Text #1
    ID : 4
    Format : UTF-8
    Codec ID : S_TEXT/UTF8
    Codec ID/Info : UTF-8 Plain Text
    Duration : 1 h 38 min
    Bit rate : 107 b/s
    Count of elements : 1064
    Stream size : 77.5 KiB (0%)
    Language : Thai
    Default : Yes
    Forced : Yes

    Text #2
    ID : 5
    Format : PGS
    Muxing mode : zlib
    Codec ID : S_HDMV/PGS
    Codec ID/Info : Picture based subtitle format used on BDs/HD-DVDs
    Duration : 1 h 38 min
    Bit rate : 30.3 kb/s
    Count of elements : 2128
    Stream size : 21.3 MiB (1%)
    Language : Thai
    Default : No
    Forced : No

    Text #3
    ID : 6
    Format : VobSub
    Muxing mode : zlib
    Codec ID : S_VOBSUB
    Codec ID/Info : Picture based subtitle format used on DVDs
    Duration : 1 h 38 min
    Bit rate : 6 834 b/s
    Count of elements : 1064
    Stream size : 4.82 MiB (0%)
    Title : Thai
    Language : Thai
    Default : No
    Forced : No

    Text #4
    ID : 7
    Format : VobSub
    Muxing mode : zlib
    Codec ID : S_VOBSUB
    Codec ID/Info : Picture based subtitle format used on DVDs
    Duration : 1 h 38 min
    Bit rate : 6 861 b/s
    Count of elements : 1064
    Stream size : 4.83 MiB (0%)
    Title : Thai Yellow
    Language : Thai
    Default : No
    Forced : No

    Text #5
    ID : 8
    Format : VobSub
    Muxing mode : zlib
    Codec ID : S_VOBSUB
    Codec ID/Info : Picture based subtitle format used on DVDs
    Duration : 1 h 47 min
    Bit rate : 20.1 kb/s
    Count of elements : 2136
    Stream size : 15.4 MiB (0%)
    Title : English
    Language : English
    Default : No
    Forced : No





    Download:cornfile
    http://cornfile.com/208oaep5tqoa
    Download:filecondo
    http://www.filecondo.com/dl.php?f=Oe02cc1LFGGJ

  2. The Following 2 Users Say Thank You to Duckload.us For This Useful Post:

    gaszolineskywalker (05-11-2021), noi54 (05-12-2021)

  3. #2
    Senior Member
    สมัครเมื่อ
    Jul 2013
    โพสต์
    2,281
    Thanks
    0
    Thanked 0 Times in 0 Posts
    ขอบคุณครับ

  4. #3
    Senior Member
    สมัครเมื่อ
    Oct 2012
    โพสต์
    1,533
    Thanks
    2,461
    Thanked 0 Times in 0 Posts
    ขอบคุณครับ

+ ตอบกลับกระทู้

ข้อมูลกระทู้

Users Browsing this Thread

ในขณะนี้มี 1 ท่านดูกระทู้อยู่. (0 สมาชิกและ 1 ผู้เยี่ยมชม)

     

กฎการโพสต์ข้อความ

  • ท่าน ไม่สามารถ ตั้งกระทู้ใหม่ได้
  • ท่าน ไม่สามารถ ตอบกระทู้ได้
  • ท่าน ไม่สามารถ แนบไฟล์ได้
  • ท่าน ไม่สามารถ แก้ไขข้อความโพสต์ได้
  • BB code สถานะ เปิด
  • Smilies สถานะ เปิด
  • [IMG] สถานะ เปิด
  • HTML สถานะ ปิด