+ ตอบกลับกระทู้
สรุปผลการค้นหา 1 ถึง 4 จากทั้งหมด 4
  1. #1
    Administrators รูปส่วนตัว Duckload.us
    สมัครเมื่อ
    Dec 2010
    โพสต์
    127,911
    Thanks
    7
    Thanked 132,094 Times in 58,485 Posts

    Thumbs up THE LITTLE THINGS (2021) สืบลึกปลดปมฆาตกรรม Master AC-3 Th 2.0/En DDP 5.1 Atmos-Blu-ray.AC-3.1080p. [Master]-[พากย์ไทย]



    รองนายอำเมืองเคิร์น เคาท์ตี้ โจ 'ดีค' ดีคอน (เดนเซล วอชิงตัน) ถูกส่งตัวไปยังลอสแองเจลิสกะทันหันเพื่อปฏิบัติงานเก ็บหลักฐานด่วน แต่เขากลับเข้าไปพัวพันในคดีตามล่าตัวฆาตกรต่อเนื่อง ที่ก่อเหตุสยองไปทั่วเมือง นำทีมล่าตัวฆาตกรโฉดโดยตำรวจหนุ่ม จิม แบ็กซ์เตอร์ (รามี่ มาเล็ค) ผู้ที่ประทับใจในสัญชาตญาณการสืบสวนของ ดีค ที่บังเอิญได้เข้ามาช่วยทำคดี แต่ยิ่งพวกเขาตามตัวฆาตกรใจโฉดนั้นมากเท่าไหร่ แบ็กซ์เตอร์ ก็ยิ่งรู้สึกระแวงเพราะดูเหมือนว่าการสืบสวนในครั้งน ี้จะขุดอดีตบางอย่างของ ดีค และเปิดโปงความลับที่น่าขนหัวลุกยิ่งกว่าคดีที่เขากำ ลังเผชิญ

    Format : Matroska
    Format version : Version 4
    File size : 4.90 GiB
    Duration : 2 h 7 min
    Overall bit rate : 5 484 kb/s
    Movie name : The.Little.Things.2021.1080p.WEB-DL.DDP5.1._©GOLD CUP™_WWW.TT-TORRENT.COM

    Video
    ID : 1
    Format : AVC
    Format/Info : Advanced Video Codec
    Format profile : [email protected]
    Format settings : CABAC / 1 Ref Frames
    Format settings, CABAC : Yes
    Format settings, Reference : 1 frame
    Format settings, GOP : M=1, N=25
    Codec ID : V_MPEG4/ISO/AVC
    Duration : 2 h 7 min
    Bit rate mode : Constant
    Bit rate : 4 500 kb/s
    Width : 1 920 pixels
    Height : 800 pixels
    Display aspect ratio : 2.40:1
    Frame rate mode : Constant
    Frame rate : 29.970 (30000/1001) FPS
    Color space : YUV
    Chroma subsampling : 4:2:0
    Bit depth : 8 bits
    Scan type : Progressive
    Bits/(Pixel*Frame) : 0.098
    Stream size : 4.01 GiB (82%)
    Title : The.Little.Things.2021.1080p.WEB-DL.DDP5.1._©GOLD CUP™
    Language : Thai
    Default : Yes
    Forced : No

    Audio #1
    ID : 2
    Format : AC-3
    Format/Info : Audio Coding 3
    Commercial name : Dolby Digital
    Codec ID : A_AC3
    Duration : 2 h 7 min
    Bit rate mode : Constant
    Bit rate : 192 kb/s
    Channel(s) : 2 channels
    Channel layout : L R
    Sampling rate : 48.0 kHz
    Frame rate : 31.250 FPS (1536 SPF)
    Compression mode : Lossy
    Stream size : 175 MiB (4%)
    Title : Th.2.0.AC3.192k
    Language : Thai
    Service kind : Complete Main
    Default : Yes
    Forced : No

    Audio #2
    ID : 3
    Format : E-AC-3 JOC
    Format/Info : Enhanced AC-3 with Joint Object Coding
    Commercial name : Dolby Digital Plus with Dolby Atmos
    Codec ID : A_EAC3
    Duration : 2 h 7 min
    Bit rate mode : Constant
    Bit rate : 768 kb/s
    Channel(s) : 6 channels
    Channel layout : L R C LFE Ls Rs
    Sampling rate : 48.0 kHz
    Frame rate : 31.250 FPS (1536 SPF)
    Compression mode : Lossy
    Delay relative to video : 20 ms
    Stream size : 702 MiB (14%)
    Language : English
    Service kind : Complete Main
    Default : No
    Forced : No
    Complexity index : 16
    Number of dynamic objects : 15
    Bed channel count : 1 channel
    Bed channel configuration : LFE

    Text #1
    ID : 4
    Format : PGS
    Muxing mode : zlib
    Codec ID : S_HDMV/PGS
    Codec ID/Info : Picture based subtitle format used on BDs/HD-DVDs
    Duration : 2 h 7 min
    Bit rate : 19.4 kb/s
    Count of elements : 2626
    Stream size : 17.6 MiB (0%)
    Language : Thai
    Default : Yes
    Forced : No

    Text #2
    ID : 5
    Format : PGS
    Muxing mode : zlib
    Codec ID : S_HDMV/PGS
    Codec ID/Info : Picture based subtitle format used on BDs/HD-DVDs
    Duration : 2 h 2 min
    Bit rate : 27.9 kb/s
    Count of elements : 3122
    Stream size : 24.3 MiB (0%)
    Language : English
    Default : No
    Forced : No





    Download:cornfile
    http://cornfile.com/3613j1y1nibx
    Download:filecondo
    http://www.filecondo.com/dl.php?f=560d6f1LGmZj

  2. The Following 3 Users Say Thank You to Duckload.us For This Useful Post:

    amorn wichian (05-12-2021), noi54 (05-12-2021), sawara (05-12-2021)

  3. #2
    Senior Member
    สมัครเมื่อ
    Jul 2013
    โพสต์
    2,265
    Thanks
    0
    Thanked 0 Times in 0 Posts
    ขอบคุณครับ

  4. #3
    Senior Member
    สมัครเมื่อ
    Dec 2013
    โพสต์
    422
    Thanks
    355
    Thanked 0 Times in 0 Posts
    ขอบคุณครับ

  5. #4
    Senior Member
    สมัครเมื่อ
    Jul 2012
    โพสต์
    7,536
    Thanks
    0
    Thanked 0 Times in 0 Posts
    ขอบคุณมากจ้า

+ ตอบกลับกระทู้

ข้อมูลกระทู้

Users Browsing this Thread

ในขณะนี้มี 1 ท่านดูกระทู้อยู่. (0 สมาชิกและ 1 ผู้เยี่ยมชม)

     

กฎการโพสต์ข้อความ

  • ท่าน ไม่สามารถ ตั้งกระทู้ใหม่ได้
  • ท่าน ไม่สามารถ ตอบกระทู้ได้
  • ท่าน ไม่สามารถ แนบไฟล์ได้
  • ท่าน ไม่สามารถ แก้ไขข้อความโพสต์ได้
  • BB code สถานะ เปิด
  • Smilies สถานะ เปิด
  • [IMG] สถานะ เปิด
  • HTML สถานะ ปิด