+ ตอบกลับกระทู้
สรุปผลการค้นหา 1 ถึง 2 จากทั้งหมด 2
  1. #1
    Administrators รูปส่วนตัว Duckload.us
    สมัครเมื่อ
    Dec 2010
    โพสต์
    127,911
    Thanks
    7
    Thanked 132,094 Times in 58,485 Posts

    Thumbs up [MASTER] Hard Kill (2020) ไล่ล่าฆ่าไม่ตาย WEB-DL AC3_2.0 [พากย์:ไทย/อังกฤษ][SUB:ไทยฝัง][1080p]



    Donovan Chalmers (Willis) ซีอีโอมหาเศรษฐีบริษัทด้านเทคโนโลยีมีโปรแจคงานที่มี ค่ามากจนเขาจ้างทหารรับจ้างมาปกป้องและกลุ่มก่อการร้ ายก็ลักพาตัวลูกสาวของเขาไปเพื่อให้ได้มาซึ่งโปรแจคง านนั้น

    Format : Matroska
    Format version : Version 4
    File size : 3.44 GiB
    Duration : 1 h 31 min
    Overall bit rate mode : Constant
    Overall bit rate : 5 383 kb/s
    Movie name : Hard Kill (2020) 1080p._©GOLD CUP™_WWW.TT-TORRENT.COM

    Video
    ID : 1
    Format : AVC
    Format/Info : Advanced Video Codec
    Format profile : [email protected]
    Format settings : CABAC / 1 Ref Frames
    Format settings, CABAC : Yes
    Format settings, Reference : 1 frame
    Format settings, GOP : M=1, N=25
    Codec ID : V_MPEG4/ISO/AVC
    Duration : 1 h 31 min
    Bit rate mode : Constant
    Bit rate : 5 000 kb/s
    Width : 1 920 pixels
    Height : 1 080 pixels
    Display aspect ratio : 16:9
    Frame rate mode : Constant
    Frame rate : 29.970 (30000/1001) FPS
    Color space : YUV
    Chroma subsampling : 4:2:0
    Bit depth : 8 bits
    Scan type : Progressive
    Bits/(Pixel*Frame) : 0.080
    Stream size : 3.19 GiB (93%)
    Title : Hard Kill (2020) 1080p._©GOLD CUP™
    Language : Thai
    Default : Yes
    Forced : No

    Audio #1
    ID : 2
    Format : AC-3
    Format/Info : Audio Coding 3
    Commercial name : Dolby Digital
    Codec ID : A_AC3
    Duration : 1 h 31 min
    Bit rate mode : Constant
    Bit rate : 192 kb/s
    Channel(s) : 2 channels
    Channel layout : L R
    Sampling rate : 44.1 kHz
    Frame rate : 28.711 FPS (1536 SPF)
    Compression mode : Lossy
    Stream size : 126 MiB (4%)
    Title : Th.2.0.AC3.192k
    Language : Thai
    Service kind : Complete Main
    Default : Yes
    Forced : No

    Audio #2
    ID : 3
    Format : AC-3
    Format/Info : Audio Coding 3
    Commercial name : Dolby Digital
    Codec ID : A_AC3
    Duration : 1 h 31 min
    Bit rate mode : Constant
    Bit rate : 192 kb/s
    Channel(s) : 2 channels
    Channel layout : L R
    Sampling rate : 44.1 kHz
    Frame rate : 28.711 FPS (1536 SPF)
    Compression mode : Lossy
    Stream size : 126 MiB (4%)
    Title : En.2.0.AC3.192k
    Language : English
    Service kind : Complete Main
    Default : No
    Forced : No





    Download:cornfile
    http://cornfile.com/cgf3hkzejjen
    Download:filecondo
    http://www.filecondo.com/dl.php?f=q0eaf01LHaAS

  2. The Following User Says Thank You to Duckload.us For This Useful Post:

    noi54 (05-14-2021)

  3. #2
    Senior Member
    สมัครเมื่อ
    Jul 2013
    โพสต์
    2,265
    Thanks
    0
    Thanked 0 Times in 0 Posts
    ขอบคุณครับ

+ ตอบกลับกระทู้

ข้อมูลกระทู้

Users Browsing this Thread

ในขณะนี้มี 2 ท่านดูกระทู้อยู่. (0 สมาชิกและ 2 ผู้เยี่ยมชม)

     

กฎการโพสต์ข้อความ

  • ท่าน ไม่สามารถ ตั้งกระทู้ใหม่ได้
  • ท่าน ไม่สามารถ ตอบกระทู้ได้
  • ท่าน ไม่สามารถ แนบไฟล์ได้
  • ท่าน ไม่สามารถ แก้ไขข้อความโพสต์ได้
  • BB code สถานะ เปิด
  • Smilies สถานะ เปิด
  • [IMG] สถานะ เปิด
  • HTML สถานะ ปิด