+ ตอบกลับกระทู้
สรุปผลการค้นหา 1 ถึง 3 จากทั้งหมด 3
  1. #1
    Administrators รูปส่วนตัว Duckload.us
    สมัครเมื่อ
    Dec 2010
    โพสต์
    127,911
    Thanks
    7
    Thanked 132,098 Times in 58,486 Posts

    Thumbs up [ฝรั่ง]-Artemis.Fowl.2020.[ผจญภัยสายลับใต้พิภพ] 1080p.WEB.H264-SECRECY-ซับไทยแปลดี-WEB-DL.AC-3.1080p. [Rip]-[Soundtrack บรรยายไทย (แปล)]



    "อาร์ทิมิส ฟาวล์" จากดิสนีย์ สร้างจากหนังสือนิยายอันเป็นที่รักของ เอียน โคลเฟอร์ คือการผจญภัยสุดมหัศจรรย์ และเต็มไปด้วยเวทมนตร์ ที่ติดตามการเดินทางของอัจฉริยะวัย 12 ที่ชื่อ อาร์ทิมิส ฟาวล์ ทายาทของตระกูลอาชญากรจอมบงการที่สืบเชื้อสายมาอย่าง ยาวนาน ในการตามหาพ่อผู้หายสาปสูญไปอย่างลึกลับ ด้วยความช่วยเหลือของพ่อบ้านผู้ซื่อสัตย์ที่คอยคุ้มก ันเขา อาร์ทิมิสจึงออกเดินทางตามหาเขา และได้ค้นพบเมืองโบราณใต้ดินอันแสนศิวิไลซ์ โลกอันทันสมัยอย่างน่าเหลือเชื่อของเหล่าแฟร์รี่ จากการคาดเดาว่าการหายตัวไปของพ่อเขามีบางสิ่งที่เกี ่ยวข้องกับโลกแห่งแฟร์รี่นี้ ทำให้อาร์ทิมิสต้องวางแผนสุดอันตราย ที่ทำให้เขาตกอยู่ในสงครามชิงไหวชิงพริบกับเหล่าแฟร์ รี่ผู้ทรงพลัง

    Video
    ID : 1
    Format : AVC
    Format/Info : Advanced Video Codec
    Format profile : [email protected]
    Format settings : CABAC / 4 Ref Frames
    Format settings, CABAC : Yes
    Format settings, Reference frames : 4 frames
    Codec ID : V_MPEG4/ISO/AVC
    Duration : 1 h 34 min
    Bit rate mode : Variable
    Bit rate : 8 473 kb/s
    Maximum bit rate : 12.7 Mb/s
    Width : 1 920 pixels
    Height : 1 080 pixels
    Display aspect ratio : 16:9
    Frame rate mode : Constant
    Frame rate : 23.976 (24000/1001) FPS
    Color space : YUV
    Chroma subsampling : 4:2:0
    Bit depth : 8 bits
    Scan type : Progressive
    Bits/(Pixel*Frame) : 0.170
    Stream size : 5.58 GiB (97%)
    Default : Yes
    Forced : No
    Color range : Limited
    Color primaries : BT.709
    Transfer characteristics : BT.709
    Matrix coefficients : BT.709

    Audio
    ID : 2
    Format : E-AC-3
    Format/Info : Enhanced AC-3
    Commercial name : Dolby Digital Plus
    Codec ID : A_EAC3
    Duration : 1 h 34 min
    Bit rate mode : Constant
    Bit rate : 256 kb/s
    Channel(s) : 6 channels
    Channel layout : L R C LFE Ls Rs
    Sampling rate : 48.0 kHz
    Frame rate : 31.250 FPS (1536 SPF)
    Compression mode : Lossy
    Stream size : 173 MiB (3%)
    Title : English
    Language : English
    Service kind : Complete Main
    Default : Yes
    Forced : No

    Text #1
    ID : 3
    Format : UTF-8
    Codec ID : S_TEXT/UTF8
    Codec ID/Info : UTF-8 Plain Text
    Duration : 1 h 27 min
    Bit rate : 63 b/s
    Count of elements : 1515
    Stream size : 40.7 KiB (0%)
    Title : English
    Language : English
    Default : No
    Forced : No

    Text #2
    ID : 4
    Format : UTF-8
    Codec ID : S_TEXT/UTF8
    Codec ID/Info : UTF-8 Plain Text
    Duration : 1 h 33 min
    Bit rate : 56 b/s
    Count of elements : 1050
    Stream size : 38.4 KiB (0%)
    Title : Dutch
    Language : Dutch
    Default : No
    Forced : No

    Text #3
    ID : 5
    Format : UTF-8
    Codec ID : S_TEXT/UTF8
    Codec ID/Info : UTF-8 Plain Text
    Duration : 1 h 33 min
    Bit rate : 54 b/s
    Count of elements : 1270
    Stream size : 37.6 KiB (0%)
    Title : French
    Language : French
    Default : No
    Forced : No

    Text #4
    ID : 6
    Format : UTF-8
    Codec ID : S_TEXT/UTF8
    Codec ID/Info : UTF-8 Plain Text
    Duration : 1 h 33 min
    Bit rate : 58 b/s
    Count of elements : 1414
    Stream size : 40.1 KiB (0%)
    Title : German
    Language : German
    Default : No
    Forced : No

    Text #5
    ID : 7
    Format : UTF-8
    Codec ID : S_TEXT/UTF8
    Codec ID/Info : UTF-8 Plain Text
    Duration : 1 h 33 min
    Bit rate : 57 b/s
    Count of elements : 1360
    Stream size : 39.6 KiB (0%)
    Title : Italian
    Language : Italian
    Default : No
    Forced : No

    Text #6
    ID : 8
    Format : UTF-8
    Codec ID : S_TEXT/UTF8
    Codec ID/Info : UTF-8 Plain Text
    Duration : 1 h 33 min
    Bit rate : 52 b/s
    Count of elements : 1303
    Stream size : 35.9 KiB (0%)
    Title : Polish
    Language : Polish
    Default : No
    Forced : No

    Text #7
    ID : 9
    Format : UTF-8
    Codec ID : S_TEXT/UTF8
    Codec ID/Info : UTF-8 Plain Text
    Duration : 1 h 33 min
    Bit rate : 59 b/s
    Count of elements : 1343
    Stream size : 41.0 KiB (0%)
    Title : Portuguese
    Language : Portuguese
    Default : No
    Forced : No

    Text #8
    ID : 10
    Format : UTF-8
    Codec ID : S_TEXT/UTF8
    Codec ID/Info : UTF-8 Plain Text
    Duration : 1 h 33 min
    Bit rate : 60 b/s
    Count of elements : 1361
    Stream size : 41.4 KiB (0%)
    Title : Brazilian Portuguese
    Language : Portuguese
    Default : No
    Forced : No

    Text #9
    ID : 11
    Format : UTF-8
    Codec ID : S_TEXT/UTF8
    Codec ID/Info : UTF-8 Plain Text
    Duration : 1 h 27 min
    Bit rate : 68 b/s
    Count of elements : 1364
    Stream size : 43.6 KiB (0%)
    Title : Spanish
    Language : Spanish
    Default : No
    Forced : No

    Text #10
    ID : 12
    Format : UTF-8
    Codec ID : S_TEXT/UTF8
    Codec ID/Info : UTF-8 Plain Text
    Duration : 1 h 33 min
    Bit rate : 59 b/s
    Count of elements : 1362
    Stream size : 40.7 KiB (0%)
    Title : European Spanish
    Language : Spanish
    Default : No
    Forced : No

    บรรยายไทยโดย : irate
    พิมพ์ใหม่ แปลงเป็นPGS/Vobsub1080p















    Download:cornfile
    http://cornfile.com/8cr0js44sogj
    Download:filecondo
    http://www.filecondo.com/dl.php?f=385c751LHRNn

  2. #2
    Senior Member
    สมัครเมื่อ
    Jul 2013
    โพสต์
    2,281
    Thanks
    0
    Thanked 0 Times in 0 Posts
    ขอบคุณคร๊าบ

  3. #3
    Senior Member
    สมัครเมื่อ
    Oct 2013
    โพสต์
    1,924
    Thanks
    0
    Thanked 0 Times in 0 Posts
    ขอบคุณครับ

+ ตอบกลับกระทู้

ข้อมูลกระทู้

Users Browsing this Thread

ในขณะนี้มี 1 ท่านดูกระทู้อยู่. (0 สมาชิกและ 1 ผู้เยี่ยมชม)

     

กฎการโพสต์ข้อความ

  • ท่าน ไม่สามารถ ตั้งกระทู้ใหม่ได้
  • ท่าน ไม่สามารถ ตอบกระทู้ได้
  • ท่าน ไม่สามารถ แนบไฟล์ได้
  • ท่าน ไม่สามารถ แก้ไขข้อความโพสต์ได้
  • BB code สถานะ เปิด
  • Smilies สถานะ เปิด
  • [IMG] สถานะ เปิด
  • HTML สถานะ ปิด