+ ตอบกลับกระทู้
สรุปผลการค้นหา 1 ถึง 2 จากทั้งหมด 2
  1. #1
    Administrators รูปส่วนตัว Duckload.us
    สมัครเมื่อ
    Dec 2010
    โพสต์
    127,911
    Thanks
    7
    Thanked 132,098 Times in 58,486 Posts

    Thumbs up (จีน)-QUAN DAO THE JOURNEY OF A BOXER (2020) WEB-DL AC3-2.0 [พากย์:ไทย][SUB:NO][1080p]



    Ah Ni (นำแสดงโดย CHAN Kwok Kwan) เด็กชายอายุ 12 ปีต้องดูแลพ่อที่ตาบอด (นำแสดงโดย Dominic LAM) เขามักจะถูกรังแกจากทีมเสมอเมื่อขายแท่งฟลูออเรสเซนต ์ของที่ระลึกบนถนนเพื่อเลี้ยงชีพ เป็นโศกนาฏกรรมที่พ่อของ Ah Ni ต้องตาบอดเพราะเพื่อนลุง Hing ตั้งแต่นั้นมาเขาพยายามซ่อนตัวและมีชีวิตที่สงบสุขกั บอาหนิ หลายปีต่อมาสองพี่น้องได้พบกันอีกครั้ง ตอนนี้ลุงฮิงเป็นครูสอนมวยและสัญญาว่าจะสอนอาหนิอย่า งดี Ah Ni เป็นคนที่มีประโยชน์ เขาจะช่วยเหลือและต่อสู้กลับทุกครั้งที่มีคนเจอการกล ั่นแกล้ง
    ภายใต้การฝึกของลุงฮิงหมัดของเขาจะเร็วขึ้นคลุมเครือ และแม่นยำมากขึ้นอันที่จริงสตูดิโอชกมวยไม่ได้ทำงานไ ด้ดีเหมือน แต่ก่อน พวกเขาไม่มีเงินรักษา Ah Ni และ Piggy เพื่อนของเขา (นำแสดงโดย NGO Ka Nin) ต้องการหาวิธีต่อสู้ใต้ดินเพื่อหาเงิน ถึงกระนั้นก็ยังไม่ดีพอเมื่อเทียบกับงานในโรงฆ่าสัตว ์วันหนึ่งพิกกี้พบว่ามีกลุ่มคนจากสตูดิโอชกมวยอื่นใช ้หมูเพื่อลักลอบขนยาเสพติด ก่อนอื่นเจ้านายจะโน้มน้าวให้ Piggy มีส่วนร่วมในงานเพื่อหาเงิน เพื่อพิสูจน์ว่าผลงานของเขามีค่าต่อสตูดิโอชกมวย Piggy จึงตกลงที่จะช่วยเหลือ
    ในทางกลับกันเจ้านายได้วางกับดักและเอาชนะ Piggy จนเกือบตายเพื่อช่วย Piggy Ah Ni ได้ตัดสินใจที่จะยอมรับการต่อสู้ครั้งสุดท้ายในความห ายนะ ในที่สุด Ah Ni จะเป็นแชมป์และช่วยชีวิต Piggy ได้หรือไม่?

    Format : Matroska
    Format version : Version 4
    File size : 3.40 GiB
    Duration : 1 h 33 min
    Overall bit rate mode : Constant
    Overall bit rate : 5 190 kb/s
    Movie name : QUAN DAO THE JOURNEY OF A BOXER (2020) _©GOLD CUP™_WWW.TT-TORRENT.COM
    Encoded date : UTC 2021-05-16 08:43:05
    Writing application : mkvmerge v56.1.0 ('My Friend') 64-bit
    Writing library : libebml v1.4.2 + libmatroska v1.6.4
    Cover : Yes
    Attachments : cover.jpg

    Video
    ID : 1
    Format : AVC
    Format/Info : Advanced Video Codec
    Format profile : [email protected]
    Format settings : CABAC / 1 Ref Frames
    Format settings, CABAC : Yes
    Format settings, Reference frames : 1 frame
    Format settings, GOP : M=1, N=25
    Codec ID : V_MPEG4/ISO/AVC
    Duration : 1 h 33 min
    Bit rate mode : Constant
    Bit rate : 5 000 kb/s
    Width : 1 920 pixels
    Height : 800 pixels
    Display aspect ratio : 2.40:1
    Frame rate mode : Constant
    Frame rate : 29.970 (30000/1001) FPS
    Color space : YUV
    Chroma subsampling : 4:2:0
    Bit depth : 8 bits
    Scan type : Progressive
    Bits/(Pixel*Frame) : 0.109
    Stream size : 3.27 GiB (96%)
    Title : QUAN DAO THE JOURNEY OF A BOXER (2020) _©GOLD CUP™
    Language : Thai
    Default : Yes
    Forced : No

    Audio
    ID : 2
    Format : AC-3
    Format/Info : Audio Coding 3
    Commercial name : Dolby Digital
    Codec ID : A_AC3
    Duration : 1 h 33 min
    Bit rate mode : Constant
    Bit rate : 192 kb/s
    Channel(s) : 2 channels
    Channel layout : L R
    Sampling rate : 44.1 kHz
    Frame rate : 28.711 FPS (1536 SPF)
    Compression mode : Lossy
    Stream size : 129 MiB (4%)
    Title : Th.2.0.AC3.192k
    Language : Thai
    Service kind : Complete Main
    Default : Yes
    Forced : No





    Download:cornfile
    http://cornfile.com/lz5oauhzyhxf
    Download:filecondo
    http://www.filecondo.com/dl.php?f=Gb9e631LIaXE

  2. The Following User Says Thank You to Duckload.us For This Useful Post:

    Jodz14 (05-21-2021)

  3. #2
    Senior Member
    สมัครเมื่อ
    Jul 2013
    โพสต์
    2,281
    Thanks
    0
    Thanked 0 Times in 0 Posts
    ขอบคุุณครับ

+ ตอบกลับกระทู้

ข้อมูลกระทู้

Users Browsing this Thread

ในขณะนี้มี 1 ท่านดูกระทู้อยู่. (0 สมาชิกและ 1 ผู้เยี่ยมชม)

     

กฎการโพสต์ข้อความ

  • ท่าน ไม่สามารถ ตั้งกระทู้ใหม่ได้
  • ท่าน ไม่สามารถ ตอบกระทู้ได้
  • ท่าน ไม่สามารถ แนบไฟล์ได้
  • ท่าน ไม่สามารถ แก้ไขข้อความโพสต์ได้
  • BB code สถานะ เปิด
  • Smilies สถานะ เปิด
  • [IMG] สถานะ เปิด
  • HTML สถานะ ปิด