+ ตอบกลับกระทู้
สรุปผลการค้นหา 1 ถึง 1 จากทั้งหมด 1
  1. #1
    Administrators รูปส่วนตัว Duckload.us
    สมัครเมื่อ
    Dec 2010
    โพสต์
    127,911
    Thanks
    7
    Thanked 132,094 Times in 58,485 Posts

    Thumbs up [ฝรั่ง]-Promising Young Woman (2020) สาวซ่าส์ล่าบัญชีแค้น - [Soundtrack] [บรรยายไทย+อังกฤษ] BDRip.1080p.x264




    เมื่ออดีตนักศึกษาแพทย์ออกล้างแค้นหนุ่มโปรไฟล์ดี ความแซ่บที่มาพร้อมกับความบันเทิงจึงเกิดขึ้น Promising Young Woman สาวซ่าส์ล่าบัญชีแค้น คือผลงานกำกับเรื่องแรกโดยผู้กำกับวิสัยทัศน์ไกล เอเมอรัลด์ เฟนเนลล์ (จาก Killing Eve) นำเสนอเรื่องราวการล้างแค้นสุดแซ่บ ทุกคนต่างบอกว่าแคสซี่เคยเป็นหญิงสาวผู้มีอนาคตไกล จนกระทั่งเหตุการณ์ลึกลับเกิดขึ้นและทำให้อนาคตของเธ อดับวูบ แต่ชีวิตของเธอไม่ได้เป็นอย่างที่เห็น เธอฉลาดเป็นกรด มีเล่ห์เหลี่ยม และใช้ชีวิตในยามค่ำคืนแบบลับ ๆ ตอนนี้ การเผชิญหน้าแบบไม่คาดคิด กำลังจะทำให้แคสซี่พลิกสิ่งที่ผิดพลาดในอดีตให้ถูกต้ อง


    Duration : 1 h 53 min
    Overall bit rate : 12.1 Mb/s
    Encoded date : UTC 2021-06-09 04:06:48
    Writing application : mkvmerge v57.0.0 ('Till The End') 64-bit
    Writing library : libebml v1.4.2 + libmatroska v1.6.4
    Cover : Yes
    Attachments : cover

    Video
    ID : 1
    Format : AVC
    Format/Info : Advanced Video Codec
    Format profile : [email protected]
    Format settings : CABAC / 5 Ref Frames
    Format settings, CABAC : Yes
    Format settings, Reference frames : 5 frames
    Codec ID : V_MPEG4/ISO/AVC
    Duration : 1 h 53 min
    Bit rate : 11.5 Mb/s
    Width : 1 920 pixels
    Height : 802 pixels
    Display aspect ratio : 2.40:1
    Frame rate mode : Constant
    Frame rate : 23.976 (24000/1001) FPS
    Color space : YUV
    Chroma subsampling : 4:2:0
    Bit depth : 8 bits
    Scan type : Progressive
    Bits/(Pixel*Frame) : 0.310
    Stream size : 9.08 GiB (94%)
    Writing library : x264 core 157 r2938 2b00a84 [email protected] Mod
    Encoding settings : cabac=1 / ref=5 / deblock=1:-3:-3 / analyse=0x3:0x133 / me=umh / subme=10 / psy=1 / psy_rd=1.05:0.00 / mixed_ref=1 / me_range=32 / chroma_me=1 / trellis=2 / 8x8dct=1 / cqm=0 / deadzone=21,11 / fast_pskip=0 / chroma_qp_offset=-2 / threads=12 / lookahead_threads=2 / sliced_threads=0 / nr=0 / decimate=0 / interlaced=0 / bluray_compat=0 / constrained_intra=0 / bframes=8 / b_pyramid=2 / b_adapt=2 / b_bias=0 / direct=3 / weightb=1 / open_gop=0 / weightp=2 / keyint=250 / keyint_min=24 / scenecut=40 / intra_refresh=0 / rc_lookahead=250 / rc=crf / mbtree=0 / crf=16.8 / qcomp=0.60 / qpmin=0 / qpmax=69 / qpstep=4 / vbv_maxrate=62500 / vbv_bufsize=78125 / crf_max=0.0 / nal_hrd=none / filler=0 / ip_ratio=1.30 / pb_ratio=1.20 / aq=3:0.80
    Language : English
    Default : Yes
    Forced : No
    Color range : Limited
    Color primaries : BT.709
    Matrix coefficients : BT.709

    Audio
    ID : 2
    Format : AC-3
    Format/Info : Audio Coding 3
    Commercial name : Dolby Digital
    Codec ID : A_AC3
    Duration : 1 h 53 min
    Bit rate mode : Constant
    Bit rate : 640 kb/s
    Channel(s) : 6 channels
    Channel layout : L R C LFE Ls Rs
    Sampling rate : 48.0 kHz
    Frame rate : 31.250 FPS (1536 SPF)
    Compression mode : Lossy
    Stream size : 519 MiB (5%)
    Language : English
    Service kind : Complete Main
    Default : No
    Forced : No

    Text #1
    ID : 3
    Format : UTF-8
    Codec ID : S_TEXT/UTF8
    Codec ID/Info : UTF-8 Plain Text
    Duration : 1 h 53 min
    Bit rate : 78 b/s
    Count of elements : 2331
    Stream size : 65.1 KiB (0%)
    Language : English
    Default : No
    Forced : No

    Text #2
    ID : 4
    Format : PGS
    Muxing mode : zlib
    Codec ID : S_HDMV/PGS
    Codec ID/Info : Picture based subtitle format used on BDs/HD-DVDs
    Duration : 1 h 53 min
    Bit rate : 55.0 kb/s
    Count of elements : 4662
    Stream size : 44.6 MiB (0%)
    Language : English
    Default : No
    Forced : No

    Text #3
    ID : 5
    Format : UTF-8
    Codec ID : S_TEXT/UTF8
    Codec ID/Info : UTF-8 Plain Text
    Duration : 1 h 47 min
    Bit rate : 146 b/s
    Count of elements : 1813
    Stream size : 115 KiB (0%)
    Language : Thai
    Default : No
    Forced : No

    Text #4
    ID : 6
    Format : PGS
    Muxing mode : zlib
    Codec ID : S_HDMV/PGS
    Codec ID/Info : Picture based subtitle format used on BDs/HD-DVDs
    Duration : 1 h 47 min
    Bit rate : 38.2 kb/s
    Count of elements : 3626
    Stream size : 29.3 MiB (0%)
    Language : Thai
    Default : Yes
    Forced : No







    9.6 GB
    Download:cornfile
    http://cornfile.com/pj1jrx9hq68w
    Download:filecondo
    http://www.filecondo.com/dl.php?f=Vd83ea1LQX7g

  2. The Following 2 Users Say Thank You to Duckload.us For This Useful Post:

    masaomi (06-09-2021), noi54 (06-11-2021)

+ ตอบกลับกระทู้

ข้อมูลกระทู้

Users Browsing this Thread

ในขณะนี้มี 1 ท่านดูกระทู้อยู่. (0 สมาชิกและ 1 ผู้เยี่ยมชม)

     

กฎการโพสต์ข้อความ

  • ท่าน ไม่สามารถ ตั้งกระทู้ใหม่ได้
  • ท่าน ไม่สามารถ ตอบกระทู้ได้
  • ท่าน ไม่สามารถ แนบไฟล์ได้
  • ท่าน ไม่สามารถ แก้ไขข้อความโพสต์ได้
  • BB code สถานะ เปิด
  • Smilies สถานะ เปิด
  • [IMG] สถานะ เปิด
  • HTML สถานะ ปิด