+ ตอบกลับกระทู้
สรุปผลการค้นหา 1 ถึง 2 จากทั้งหมด 2
  1. #1
    Administrators รูปส่วนตัว Duckload.us
    สมัครเมื่อ
    Dec 2010
    โพสต์
    127,911
    Thanks
    7
    Thanked 132,094 Times in 58,485 Posts

    Thumbs up Above suspicion (2019) ระอุรัก ระห่ำชีวิต web-dl.ac3_2.0 (ฝรั่ง-พากย์ไทย/อังกฤษ.ซับไทยฝัง)



    สร้างจากเรื่องจริง เรื่องที่นำไปสู่การตัดสินลงโทษครั้งแรกในประวัติศาต ร์ของอเมริกา ในคดีฆาตกรรมที่กระทำโดยเจ้าหน้าที่เอฟบีไอ

    Format : Matroska
    Format version : Version 4
    File size : 3.69 GiB
    Duration : 1 h 34 min
    Overall bit rate mode : Constant
    Overall bit rate : 5 612 kb/s
    Movie name : Above Suspicion (2019) ระอุรัก ระห่ำชีวิต_©GOLD CUP™_WWW.TT-TORRENT.COM
    Encoded date : UTC 2021-06-06 11:32:40
    Writing application : mkvmerge v57.0.0 ('Till The End') 64-bit
    Writing library : libebml v1.4.2 + libmatroska v1.6.4
    Cover : Yes
    Attachments : cover.jpg

    Video
    ID : 1
    Format : AVC
    Format/Info : Advanced Video Codec
    Format profile : [email protected]
    Format settings : CABAC / 1 Ref Frames
    Format settings, CABAC : Yes
    Format settings, Reference frames : 1 frame
    Format settings, GOP : M=1, N=25
    Codec ID : V_MPEG4/ISO/AVC
    Duration : 1 h 34 min
    Bit rate mode : Constant
    Bit rate : 5 229 kb/s
    Width : 1 280 pixels
    Height : 718 pixels
    Display aspect ratio : 16:9
    Frame rate mode : Constant
    Frame rate : 29.970 (30000/1001) FPS
    Color space : YUV
    Chroma subsampling : 4:2:0
    Bit depth : 8 bits
    Scan type : Progressive
    Bits/(Pixel*Frame) : 0.190
    Stream size : 3.44 GiB (93%)
    Title : Above Suspicion (2019) ระอุรัก ระห่ำชีวิต_©GOLD CUP™
    Language : Thai
    Default : Yes
    Forced : No

    Audio #1
    ID : 2
    Format : AC-3
    Format/Info : Audio Coding 3
    Commercial name : Dolby Digital
    Codec ID : A_AC3
    Duration : 1 h 34 min
    Bit rate mode : Constant
    Bit rate : 192 kb/s
    Channel(s) : 2 channels
    Channel layout : L R
    Sampling rate : 44.1 kHz
    Frame rate : 28.711 FPS (1536 SPF)
    Compression mode : Lossy
    Stream size : 129 MiB (3%)
    Title : Th.2.0.AC3.192k
    Language : Thai
    Service kind : Complete Main
    Default : Yes
    Forced : No

    Audio #2
    ID : 3
    Format : AC-3
    Format/Info : Audio Coding 3
    Commercial name : Dolby Digital
    Codec ID : A_AC3
    Duration : 1 h 34 min
    Bit rate mode : Constant
    Bit rate : 192 kb/s
    Channel(s) : 2 channels
    Channel layout : L R
    Sampling rate : 48.0 kHz
    Frame rate : 31.250 FPS (1536 SPF)
    Compression mode : Lossy
    Stream size : 129 MiB (3%)
    Title : En.2.0.AC3.192k
    Language : English
    Service kind : Complete Main
    Default : No
    Forced : No





    Download:cornfile
    http://cornfile.com/v1piko6c1zli
    Download:filecondo
    http://www.filecondo.com/dl.php?f=6bb1e11LQWxB

  2. The Following 2 Users Say Thank You to Duckload.us For This Useful Post:

    noi54 (06-10-2021), sawara (06-09-2021)

  3. #2
    Senior Member
    สมัครเมื่อ
    Dec 2013
    โพสต์
    422
    Thanks
    355
    Thanked 0 Times in 0 Posts
    ขอบคุณครับ

+ ตอบกลับกระทู้

ข้อมูลกระทู้

Users Browsing this Thread

ในขณะนี้มี 1 ท่านดูกระทู้อยู่. (0 สมาชิกและ 1 ผู้เยี่ยมชม)

     

กฎการโพสต์ข้อความ

  • ท่าน ไม่สามารถ ตั้งกระทู้ใหม่ได้
  • ท่าน ไม่สามารถ ตอบกระทู้ได้
  • ท่าน ไม่สามารถ แนบไฟล์ได้
  • ท่าน ไม่สามารถ แก้ไขข้อความโพสต์ได้
  • BB code สถานะ เปิด
  • Smilies สถานะ เปิด
  • [IMG] สถานะ เปิด
  • HTML สถานะ ปิด