เรื่องราวของ ดับเบิลยู. ยูจีน สมิธ (จอห์นนี่ เดปป์) ช่างภาพที่ได้รับการยกย่องมากที่สุดคนหนึ่งในช่วงสงค รามโลกครั้งที่สอง เขาถูกส่งไปยังเมือง มินามาตะ ชายฝั่งทะเลญี่ปุ่นที่ถูกสารพิษปรอททำลาย อันเนื่องมาจากความประมาทเลินเล่อของอุตสาหกรรมสารเค มีของบริษัทชิสโซะ ที่นั่นทำให้ สมิธ หมกมุ่นอยู่กับเรียกร้องเกี่ยวกับโรคมินามาตะต่อบริษ ัทชิสโซะและรัฐบาลญี่ปุ่น จนภาพถ่ายของเขาที่ได้ถ่ายทอดหมู่บ้านที่ได้รับผลกระ ทบจากสารพิษ กลายเป็นการสะท้อนมิติมนุษย์ที่แสนสะเทือนใจ และได้เปลี่ยนแปลงประสบการ์ชีวิตของเขาไปด้วยพร้อม ๆ กัน


Format : Matroska
Format version : Version 4
File size : 4.12 GiB
Duration : 1 h 50 min
Overall bit rate : 5 336 kb/s
Encoded date : UTC 2021-06-09 13:58:29
Writing application : mkvmerge v57.0.0 ('Till The End') 64-bit
Writing library : libebml v1.4.2 + libmatroska v1.6.4

Video
ID : 1
Format : AVC
Format/Info : Advanced Video Codec
Format profile : [email protected]
Format settings : CABAC / 3 Ref Frames
Format settings, CABAC : Yes
Format settings, Reference : 3 frames
Codec ID : V_MPEG4/ISO/AVC
Duration : 1 h 50 min
Bit rate : 4 933 kb/s
Width : 1 920 pixels
Height : 1 040 pixels
Display aspect ratio : 1.85:1
Frame rate mode : Constant
Frame rate : 25.000 FPS
Color space : YUV
Chroma subsampling : 4:2:0
Bit depth : 8 bits
Scan type : Progressive
Bits/(Pixel*Frame) : 0.099
Stream size : 3.81 GiB (92%)
Language : English
Default : Yes
Forced : No

Audio
ID : 2
Format : AC-3
Format/Info : Audio Coding 3
Commercial name : Dolby Digital
Codec ID : A_AC3
Duration : 1 h 50 min
Bit rate mode : Constant
Bit rate : 384 kb/s
Channel(s) : 6 channels
Channel layout : L R C LFE Ls Rs
Sampling rate : 48.0 kHz
Frame rate : 31.250 FPS (1536 SPF)
Compression mode : Lossy
Stream size : 304 MiB (7%)
Title : AC-3 English
Language : English
Service kind : Complete Main
Default : Yes
Forced : No

Text #1
ID : 3
Format : VobSub
Muxing mode : zlib
Codec ID : S_VOBSUB
Codec ID/Info : Picture based subtitle format used on DVDs
Duration : 1 h 44 min
Bit rate : 9 748 b/s
Count of elements : 1036
Stream size : 7.28 MiB (0%)
Title : Sub Thai 1080p
Language : Thai
Default : No
Forced : No

Text #2
ID : 4
Format : UTF-8
Codec ID : S_TEXT/UTF8
Codec ID/Info : UTF-8 Plain Text
Duration : 1 h 44 min
Bit rate : 99 b/s
Count of elements : 1036
Stream size : 76.3 KiB (0%)
Title : Sub Thai SRT
Language : Thai
Default : No
Forced : No

Text #3
ID : 5
Format : PGS
Muxing mode : zlib
Codec ID : S_HDMV/PGS
Codec ID/Info : Picture based subtitle format used on BDs/HD-DVDs
Duration : 1 h 44 min
Bit rate : 27.2 kb/s
Count of elements : 2072
Stream size : 20.3 MiB (0%)
Title : Sub Thai PGS
Language : Thai
Default : Yes
Forced : No

Text #4
ID : 6
Format : UTF-8
Codec ID : S_TEXT/UTF8
Codec ID/Info : UTF-8 Plain Text
Duration : 1 h 21 min
Bit rate : 13 b/s
Count of elements : 293
Stream size : 7.96 KiB (0%)
Title : Sub English SRT
Language : English
Default : No
Forced : No






Download:cornfile
Minamata (2020).mkv - 4.1 GB
Minamata.2021.1080p.WEB-DL.H264.DD5.1.mkv - 4.3 GB
Download:filecondo
Minamata (2020).mkv - 4.1 GB
Minamata.2021.1080p.WEB-DL.H264.DD5.1.mkv - 4.3 GB