+ ตอบกลับกระทู้
สรุปผลการค้นหา 1 ถึง 4 จากทั้งหมด 4
  1. #1
    Administrators รูปส่วนตัว Duckload.us
    สมัครเมื่อ
    Dec 2010
    โพสต์
    129,757
    Thanks
    7
    Thanked 133,686 Times in 59,197 Posts

    Thumbs up [ฝรั่ง]-[Netflix] Lupin (2021) จอมโจรลูแปง Season 1-2 [เสียง:อังกฤษ-ไทย-ฝรั่งเศส AC-3 5.1][บรรยาย: ไทย PGS/SRT-อังกฤษ SRT Netflix]-WEB-DL.H.264.1080p. [From HD-TV]-[พากย์ไทย บรรยายไทย]




    อัสซาน จ็อปผู้ได้รับแรงบันดาลใจจากวีรกรรมของสุภาพบุรุษจอม โจรอาร์แซน ลูแปง ตั้งใจแก้แค้นให้พ่อที่ได้รับความอยุติธรรมจากครอบคร ัวที่มั่งคั่ง
    นักแสดงนำ:โอมาร์ ไซ,ลูดิวีน ซาญนิเยร์,โคลทิลด์ เอส์ม
    ผู้สร้าง:จอร์จ เคย์

    Video
    ID : 1
    Format : AVC
    Format/Info : Advanced Video Codec
    Format profile : [email protected]
    Format settings : CABAC / 4 Ref Frames
    Format settings, CABAC : Yes
    Format settings, Reference fra : 4 frames
    Codec ID : V_MPEG4/ISO/AVC
    Duration : 42 min 33 s
    Bit rate : 3 746 kb/s
    Width : 1 920 pixels
    Height : 1 080 pixels
    Display aspect ratio : 16:9
    Frame rate mode : Constant
    Frame rate : 25.000 FPS
    Color space : YUV
    Chroma subsampling : 4:2:0
    Bit depth : 8 bits
    Scan type : Progressive
    Bits/(Pixel*Frame) : 0.072
    Stream size : 1.11 GiB (66%)
    Default : Yes
    Forced : No

    Audio #1
    ID : 2
    Format : E-AC-3
    Format/Info : Enhanced AC-3
    Commercial name : Dolby Digital Plus
    Codec ID : A_EAC3
    Duration : 42 min 34 s
    Bit rate mode : Constant
    Bit rate : 640 kb/s
    Channel(s) : 6 channels
    Channel layout : L R C LFE Ls Rs
    Sampling rate : 48.0 kHz
    Frame rate : 31.250 FPS (1536 SPF)
    Compression mode : Lossy
    Stream size : 195 MiB (11%)
    Title : [Thai-AC-3]
    Language : Thai
    Service kind : Complete Main
    Default : Yes
    Forced : No

    Audio #2
    ID : 3
    Format : E-AC-3
    Format/Info : Enhanced AC-3
    Commercial name : Dolby Digital Plus
    Codec ID : A_EAC3
    Duration : 42 min 34 s
    Bit rate mode : Constant
    Bit rate : 640 kb/s
    Channel(s) : 6 channels
    Channel layout : L R C LFE Ls Rs
    Sampling rate : 48.0 kHz
    Frame rate : 31.250 FPS (1536 SPF)
    Compression mode : Lossy
    Stream size : 195 MiB (11%)
    Title : [French-AC-3]
    Language : French
    Service kind : Complete Main
    Default : No
    Forced : No

    Audio #3
    ID : 4
    Format : E-AC-3
    Format/Info : Enhanced AC-3
    Commercial name : Dolby Digital Plus
    Codec ID : A_EAC3
    Duration : 42 min 34 s
    Bit rate mode : Constant
    Bit rate : 640 kb/s
    Channel(s) : 6 channels
    Channel layout : L R C LFE Ls Rs
    Sampling rate : 48.0 kHz
    Frame rate : 31.250 FPS (1536 SPF)
    Compression mode : Lossy
    Stream size : 195 MiB (11%)
    Title : [English-AC-3]
    Language : English
    Service kind : Complete Main
    Default : No
    Forced : No

    Text #1
    ID : 5
    Format : PGS
    Muxing mode : zlib
    Codec ID : S_HDMV/PGS
    Codec ID/Info : Picture based subtitle format used on BDs/HD-DVDs
    Duration : 40 min 57 s
    Bit rate : 769 b/s
    Count of elements : 40
    Stream size : 231 KiB (0%)
    Title : [Thai Netflix Forced PGS]
    Language : Thai
    Default : Yes
    Forced : No

    Text #2
    ID : 6
    Format : PGS
    Muxing mode : zlib
    Codec ID : S_HDMV/PGS
    Codec ID/Info : Picture based subtitle format used on BDs/HD-DVDs
    Duration : 40 min 57 s
    Bit rate : 11.2 kb/s
    Count of elements : 620
    Stream size : 3.28 MiB (0%)
    Title : [Thai Netflix PGS]
    Language : Thai
    Default : No
    Forced : No

    Text #3
    ID : 7
    Format : UTF-8
    Codec ID : S_TEXT/UTF8
    Codec ID/Info : UTF-8 Plain Text
    Duration : 40 min 57 s
    Bit rate : 3 b/s
    Count of elements : 20
    Stream size : 1.12 KiB (0%)
    Title : SRT Forced
    Language : Thai
    Default : No
    Forced : No

    Text #4
    ID : 8
    Format : UTF-8
    Codec ID : S_TEXT/UTF8
    Codec ID/Info : UTF-8 Plain Text
    Duration : 40 min 57 s
    Bit rate : 59 b/s
    Count of elements : 310
    Stream size : 17.8 KiB (0%)
    Title : SRT
    Language : Thai
    Default : No
    Forced : No

    Text #5
    ID : 9
    Format : UTF-8
    Codec ID : S_TEXT/UTF8
    Codec ID/Info : UTF-8 Plain Text
    Duration : 37 min 25 s
    Bit rate : 1 b/s
    Count of elements : 16
    Stream size : 392 Bytes (0%)
    Title : SRT Forced
    Language : English
    Default : No
    Forced : No

    Text #6
    ID : 10
    Format : UTF-8
    Codec ID : S_TEXT/UTF8
    Codec ID/Info : UTF-8 Plain Text
    Duration : 39 min 10 s
    Bit rate : 23 b/s
    Count of elements : 295
    Stream size : 6.69 KiB (0%)
    Title : SRT
    Language : English
    Default : No
    Forced : No






    Download:cornfile
    Lupin.จอมโจรลูแปง.S01E01.บทที่ 1.1080p.mkv - 1.8 GB
    Lupin.จอมโจรลูแปง.S01E02.บทที่ 2.1080p.mkv - 1.9 GB
    Lupin.จอมโจรลูแปง.S01E03.บทที่ 3.1080p.mkv - 1.6 GB
    Lupin.จอมโจรลูแปง.S01E04.บทที่ 4.1080p.mkv - 1.7 GB
    Lupin.จอมโจรลูแปง.S01E05.บทที่ 5.1080p.mkv - 1.6 GB
    Lupin.จอมโจรลูแปง.S02E01.บทที่ 6.1080p.mkv - 1.7 GB
    Lupin.จอมโจรลูแปง.S02E02.บทที่ 7.1080p.mkv - 1.6 GB
    Lupin.จอมโจรลูแปง.S02E03.บทที่ 8.1080p.mkv - 1.8 GB
    Lupin.จอมโจรลูแปง.S02E04.บทที่ 9.1080p.mkv - 1.9 GB
    Lupin.จอมโจรลูแปง.S02E05.บทที่ 10.1080p.mkv - 2.0 GB

    Download:filecondo
    01 http://www.filecondo.com/dl.php?f=j942da1LRZwT
    02 http://www.filecondo.com/dl.php?f=S065061LRZDr
    03 http://www.filecondo.com/dl.php?f=Pbd5a01LRZK6
    04 http://www.filecondo.com/dl.php?f=X8a99f1LRZMq
    05 http://www.filecondo.com/dl.php?f=T0f61a1LRZNT
    06 http://www.filecondo.com/dl.php?f=ibd1981LRZP0
    07 http://www.filecondo.com/dl.php?f=xf634a1LRZRh
    08 http://www.filecondo.com/dl.php?f=Ebeead1LRZSi
    09 http://www.filecondo.com/dl.php?f=Iabff61LRZTi
    10 http://www.filecondo.com/dl.php?f=V05cb01LRZWX

  2. The Following User Says Thank You to Duckload.us For This Useful Post:

    Wesker_TOT (06-14-2021)

  3. #2
    Senior Member
    สมัครเมื่อ
    Jul 2013
    โพสต์
    2,514
    Thanks
    0
    Thanked 0 Times in 0 Posts
    ขอบคุณครับ

  4. #3
    Senior Member
    สมัครเมื่อ
    Dec 2013
    โพสต์
    3,160
    Thanks
    5,076
    Thanked 0 Times in 0 Posts
    ขอบคุณครับ...

  5. #4
    Senior Member
    สมัครเมื่อ
    Jul 2012
    โพสต์
    7,623
    Thanks
    0
    Thanked 0 Times in 0 Posts
    ขอบคุณมากจ้า

+ ตอบกลับกระทู้

ข้อมูลกระทู้

Users Browsing this Thread

ในขณะนี้มี 1 ท่านดูกระทู้อยู่. (0 สมาชิกและ 1 ผู้เยี่ยมชม)

     

กฎการโพสต์ข้อความ

  • ท่าน ไม่สามารถ ตั้งกระทู้ใหม่ได้
  • ท่าน ไม่สามารถ ตอบกระทู้ได้
  • ท่าน ไม่สามารถ แนบไฟล์ได้
  • ท่าน ไม่สามารถ แก้ไขข้อความโพสต์ได้
  • BB code สถานะ เปิด
  • Smilies สถานะ เปิด
  • [IMG] สถานะ เปิด
  • HTML สถานะ ปิด