+ ตอบกลับกระทู้
สรุปผลการค้นหา 1 ถึง 1 จากทั้งหมด 1
  1. #1
    Administrators รูปส่วนตัว Duckload.us
    สมัครเมื่อ
    Dec 2010
    โพสต์
    129,769
    Thanks
    7
    Thanked 133,686 Times in 59,197 Posts

    Thumbs up [ใหม่ Paramount+] Infinite 2021 - อินฟินิท [ENG.5.1][x265.HDR][ซับ.ENG-SRT][ซับ.Thai translate-SRT]



    อีวาน Evan McCauley (Mark Wahlberg) มีทักษะที่เขาไม่เคยเรียนรู้ และเขามีความทรงจำ

    เกี่ยวกับสถานที่ที่เขาไม่เคยไปเยี่ยมชมหลอกหลอนชีวิ ตประจำวันของเขา

    มีกลุ่มลับที่เรียกตัวเองว่า Infinites ตามหาตัวอีวาน ซึ่งเผยให้เห็นว่าความทรงจำของเขาอาจ

    เป็นจริง แต่ความทรงจำเหล่านั้นมาจากหลายชาติที่แล้ว

    Infinites นำอีวานมาสู่โลกที่ไม่ธรรมดาของพวกเขา ที่ซึ่งมีพรสวรรค์เพียงไม่กี่คนจะได้รับความ

    สามารถในการเกิดใหม่พร้อมกับความทรงจำและความรู้ที่ส ั่งสมมานานหลายศตวรรษ ด้วยความ

    ลับสำคัญที่ถูกฝังไว้ในอดีต อีวานต้องทำงานร่วมกับ Infinites เพื่อไขคำตอบในความทรงจำของ

    เขาในการแข่งขันกับเวลาเพื่อช่วยมนุษยชาติ

    Format : Matroska
    Format version : Version 4
    File size : 3.57 GiB
    Duration : 1 h 46 min
    Overall bit rate : 4 810 kb/s
    Encoded date : UTC 2021-06-11 17:52:21
    Writing application : mkvmerge v56.1.0 ('My Friend') 64-bit
    Writing library : libebml v1.4.2 + libmatroska v1.6.4

    Video
    ID : 1
    Format : AVC
    Format/Info : Advanced Video Codec
    Format profile : [email protected]
    Format settings : CABAC / 4 Ref Frames
    Format settings, CABAC : Yes
    Format settings, Reference frames : 4 frames
    Codec ID : V_MPEG4/ISO/AVC
    Duration : 1 h 46 min
    Bit rate : 4 500 kb/s
    Width : 1 920 pixels
    Height : 1 080 pixels
    Display aspect ratio : 16:9
    Frame rate mode : Constant
    Frame rate : 23.976 (24000/1001) FPS
    Color space : YUV
    Chroma subsampling : 4:2:0
    Bit depth : 8 bits
    Scan type : Progressive
    Bits/(Pixel*Frame) : 0.091
    Stream size : 3.29 GiB (92%)
    Writing library : x264 core 161
    Encoding settings : cabac=1 / ref=4 / deblock=1:0:0 / analyse=0x3:0x113 / me=hex / subme=8 / psy=1 / psy_rd=1.00:0.00 / mixed_ref=1 / me_range=16 / chroma_me=1 / trellis=2 / 8x8dct=1 / cqm=0 / deadzone=21,11 / fast_pskip=1 / chroma_qp_offset=-2 / threads=6 / lookahead_threads=1 / sliced_threads=0 / nr=0 / decimate=1 / interlaced=0 / bluray_compat=0 / stitchable=1 / constrained_intra=0 / bframes=3 / b_pyramid=2 / b_adapt=1 / b_bias=0 / direct=3 / weightb=1 / open_gop=0 / weightp=2 / keyint=48 / keyint_min=4 / scenecut=0 / intra_refresh=0 / rc_lookahead=48 / rc=2pass / mbtree=1 / bitrate=4500 / ratetol=1.0 / qcomp=0.60 / qpmin=0 / qpmax=69 / qpstep=4 / cplxblur=20.0 / qblur=0.5 / vbv_maxrate=5400 / vbv_bufsize=4500 / nal_hrd=none / filler=0 / ip_ratio=1.40 / aq=1:1.00
    Default : Yes
    Forced : No

    Audio
    ID : 2
    Format : AC-3
    Format/Info : Audio Coding 3
    Commercial name : Dolby Digital
    Codec ID : A_AC3
    Duration : 1 h 46 min
    Bit rate mode : Constant
    Bit rate : 384 kb/s
    Channel(s) : 6 channels
    Channel layout : L R C LFE Ls Rs
    Sampling rate : 48.0 kHz
    Frame rate : 31.250 FPS (1536 SPF)
    Compression mode : Lossy
    Stream size : 292 MiB (8%)
    Title : English
    Language : English
    Service kind : Complete Main
    Default : No
    Forced : No

    Text #1
    ID : 3
    Format : UTF-8
    Codec ID : S_TEXT/UTF8
    Codec ID/Info : UTF-8 Plain Text
    Duration : 1 h 37 min
    Bit rate : 103 b/s
    Count of elements : 957
    Stream size : 74.0 KiB (0%)
    Language : Thai
    Default : Yes
    Forced : No

    Text #2
    ID : 4
    Format : UTF-8
    Codec ID : S_TEXT/UTF8
    Codec ID/Info : UTF-8 Plain Text
    Duration : 1 h 36 min
    Bit rate : 42 b/s
    Count of elements : 963
    Stream size : 30.4 KiB (0%)
    Title : English
    Language : English
    Default : No
    Forced : No














    Download:cornfile
    Infinite-2021-Thai-Subtitles.srt - 111 KB
    Infinite.2021.1080p.DL.DD5.1.x264.mkv - 3.6 GB
    Download:filecondo
    Infinite-2021-Thai-Subtitles.srt - 111 KB
    Infinite.2021.1080p.DL.DD5.1.x264.mkv - 3.6 GB

  2. The Following User Says Thank You to Duckload.us For This Useful Post:

    masaomi (06-13-2021)

+ ตอบกลับกระทู้

ข้อมูลกระทู้

Users Browsing this Thread

ในขณะนี้มี 1 ท่านดูกระทู้อยู่. (0 สมาชิกและ 1 ผู้เยี่ยมชม)

     

กฎการโพสต์ข้อความ

  • ท่าน ไม่สามารถ ตั้งกระทู้ใหม่ได้
  • ท่าน ไม่สามารถ ตอบกระทู้ได้
  • ท่าน ไม่สามารถ แนบไฟล์ได้
  • ท่าน ไม่สามารถ แก้ไขข้อความโพสต์ได้
  • BB code สถานะ เปิด
  • Smilies สถานะ เปิด
  • [IMG] สถานะ เปิด
  • HTML สถานะ ปิด