+ ตอบกลับกระทู้
สรุปผลการค้นหา 1 ถึง 7 จากทั้งหมด 7
  1. #1
    Administrators รูปส่วนตัว Duckload.us
    สมัครเมื่อ
    Dec 2010
    โพสต์
    129,772
    Thanks
    7
    Thanked 133,686 Times in 59,197 Posts

    Thumbs up WILLY’S WONDERLAND (2021) หุ่นนรก VS ภารโรงคลั่ง WEB-DL AC3-2.0 [พากย์:ไทย มาสเตอร์/อังกฤษ][SUB:ไทยฝัง][1080p]



    เรื่องราวของผู้ชายคนหนึ่งเขามีลักษณะนิสัยที่นิ่งเง ียบไม่ค่อยพูดวันหนึ่งเขาโดนหลอกให้ไปทำงานเป็นภารโร งของสวนสนุกแห่งหนึ่ง แต่การดูแลเครื่องเล่นมันไม่ได้ง่ายอย่างที่คิด เพราะเขาต้องหนีเอาตัวรอดจากหุ่นปีศาจที่ฟื้นขึ้นมาไ ล่ฆ่าผู้คนอย่างคลุ้มคลั่ง มีอยู่วิธีเดียวที่จะหลุดพ้นได้ เขาจึงต้องขอไฟท์กลับอย่างเต็มที่และต่อสู้แบบไม่หยุ ด

    Format : Matroska
    Format version : Version 4
    File size : 3.80 GiB
    Duration : 1 h 18 min
    Overall bit rate mode : Constant
    Overall bit rate : 6 962 kb/s
    Movie name : Willy's Wonderland (2021)_©GOLD CUP™_WWW.TT-TORRENT.COM

    Video
    ID : 1
    Format : AVC
    Format/Info : Advanced Video Codec
    Format profile : [email protected]
    Format settings : CABAC / 1 Ref Frames
    Format settings, CABAC : Yes
    Format settings, Reference : 1 frame
    Format settings, GOP : M=1, N=25
    Codec ID : V_MPEG4/ISO/AVC
    Duration : 1 h 18 min
    Bit rate mode : Constant
    Bit rate : 6 579 kb/s
    Width : 1 920 pixels
    Height : 896 pixels
    Display aspect ratio : 2.143
    Frame rate mode : Constant
    Frame rate : 29.970 (30000/1001) FPS
    Color space : YUV
    Chroma subsampling : 4:2:0
    Bit depth : 8 bits
    Scan type : Progressive
    Bits/(Pixel*Frame) : 0.128
    Stream size : 3.58 GiB (94%)
    Title : Willy's Wonderland (2021)_©GOLD CUP™
    Language : Thai
    Default : Yes
    Forced : No

    Audio #1
    ID : 2
    Format : AC-3
    Format/Info : Audio Coding 3
    Commercial name : Dolby Digital
    Codec ID : A_AC3
    Duration : 1 h 18 min
    Bit rate mode : Constant
    Bit rate : 192 kb/s
    Channel(s) : 2 channels
    Channel layout : L R
    Sampling rate : 44.1 kHz
    Frame rate : 28.711 FPS (1536 SPF)
    Compression mode : Lossy
    Stream size : 107 MiB (3%)
    Title : Th.2.0.AC3.192k
    Language : Thai
    Service kind : Complete Main
    Default : Yes
    Forced : No

    Audio #2
    ID : 3
    Format : AC-3
    Format/Info : Audio Coding 3
    Commercial name : Dolby Digital
    Codec ID : A_AC3
    Duration : 1 h 18 min
    Bit rate mode : Constant
    Bit rate : 192 kb/s
    Channel(s) : 2 channels
    Channel layout : L R
    Sampling rate : 44.1 kHz
    Frame rate : 28.711 FPS (1536 SPF)
    Compression mode : Lossy
    Stream size : 107 MiB (3%)
    Title : En.2.0.AC3.192k
    Language : English
    Service kind : Complete Main
    Default : No
    Forced : No





    Download:cornfile
    http://cornfile.com/gbsadsfdwhxt
    Download:filecondo
    http://www.filecondo.com/dl.php?f=U691211LS2Sr

  2. The Following 9 Users Say Thank You to Duckload.us For This Useful Post:

    gaszolineskywalker (07-13-2021), jackjangri (06-19-2021), Jodz14 (06-23-2021), masaomi (06-13-2021), noi54 (06-12-2021), sawara (06-15-2021), spiderpud2 (07-08-2021), virusring (06-14-2021), Wesker_TOT (06-13-2021)

  3. #2
    Senior Member
    สมัครเมื่อ
    Dec 2013
    โพสต์
    3,160
    Thanks
    5,076
    Thanked 0 Times in 0 Posts
    ขอบคุณครับ...

  4. #3
    Senior Member
    สมัครเมื่อ
    Jul 2013
    โพสต์
    2,514
    Thanks
    0
    Thanked 0 Times in 0 Posts
    ขอบคุณครับ

  5. #4
    Junior Member
    สมัครเมื่อ
    Jul 2011
    โพสต์
    1
    Thanks
    0
    Thanked 0 Times in 0 Posts
    หนังโดนตัดฉากโหดๆเยอะเลย

  6. #5
    Senior Member
    สมัครเมื่อ
    Jul 2012
    โพสต์
    7,623
    Thanks
    0
    Thanked 0 Times in 0 Posts
    ขอบคุณมากจ้า

  7. #6
    Senior Member
    สมัครเมื่อ
    Jun 2011
    โพสต์
    261
    Thanks
    414
    Thanked 40 Times in 29 Posts
    ขอบคุณครับ

  8. #7
    Senior Member
    สมัครเมื่อ
    Oct 2012
    โพสต์
    1,619
    Thanks
    2,551
    Thanked 0 Times in 0 Posts
    ขอบคุณครับ แต่ผมว่า ทั้งภาพและเสียงมันไม่มาสเตอร์นะครับ

+ ตอบกลับกระทู้

ข้อมูลกระทู้

Users Browsing this Thread

ในขณะนี้มี 1 ท่านดูกระทู้อยู่. (0 สมาชิกและ 1 ผู้เยี่ยมชม)

     

กฎการโพสต์ข้อความ

  • ท่าน ไม่สามารถ ตั้งกระทู้ใหม่ได้
  • ท่าน ไม่สามารถ ตอบกระทู้ได้
  • ท่าน ไม่สามารถ แนบไฟล์ได้
  • ท่าน ไม่สามารถ แก้ไขข้อความโพสต์ได้
  • BB code สถานะ เปิด
  • Smilies สถานะ เปิด
  • [IMG] สถานะ เปิด
  • HTML สถานะ ปิด