+ ตอบกลับกระทู้
สรุปผลการค้นหา 1 ถึง 1 จากทั้งหมด 1
  1. #1
    Administrators รูปส่วนตัว Duckload.us
    สมัครเมื่อ
    Dec 2010
    โพสต์
    129,665
    Thanks
    7
    Thanked 133,637 Times in 59,173 Posts

    Lightbulb [เกาหลี]-What’s Wrong With Secretary Kim (รักมั้ยนะ เลขาคิม)-Encode.H.264.1080p. [From HD-TV]-[พากย์เกาหลี&พากย์ไทย บรรยายไทย]



    ชื่อเรื่อง: What’s Wrong with Secretary Kim? / รักมั้ยนะ เลขาคิม?
    ประเภท: Drama, office, romance
    จำนวนตอน: 16 ตอน
    โปรดิวเซอร์:
    ผู้กำกับ: Park Joon Hwa
    เขียนบทโดย: Jung Kyung Yoon
    สถานีที่ออกอากาศ: TVN
    ฉายเมื่อ: 6 มิถุนายน 2018 —
    เวลาออกอากาศที่เกาหลี: วันพุธและวันพฤหัสบดี เวลา 21:30 น. ตามเวลาเกาหลี
    ออกอากาศที่ไทย : ทุกวันพุธ-พฤหัสบดี เวลา 20.15 น. 5 กันยายนนี้ ทาง PPTVHD ช่อง 36

    เรื่องย่อซีรีย์ รักมั้ยนะ เลขาคิม? What’s Wrong with Secretary Kim? :
    ครอบครัวของอียองจุนมีขนาดใหญ่บริษัทและเขาทำงานเป็น รองประธานบริษัท เขาเป็นคนเก่งร่ำรวยและหล่อ แต่เขาหยิ่ง เลขานุการของเขาคือคิมมีซู เธอทำงานมาหลายปีแล้วและเธอก็เหมาะสำหรับเขา แต่คิมมิซูตัดสินใจลาออกจากงาน(เรียบเรียงโดย korea.tlcthai.com )

    ใช้ไฟล์ต้นฉบับจากคุณ macdonol มาลดขนาดภาพ Bit rate : 2,900 kb/s
    เรียงเสียงเกาหลีขึ้นก่อน และใส่ปก

    สุดท้ายสุ่มตรวจ

    credit:https://www.siambit.me/details.php?i...ashinfo=688471

    File Info
    General
    Unique ID : 263881591327827164639731491432831000902 (0xC685BEF018B3CA2147B1ECDDC63E2146)
    Complete name : C:UsersBabeDownloadsTorrentUploadWhat s Wrong With Secretary Kim [2018]What [email protected]
    Format : Matroska
    Format version : Version 4
    File size : 1.45 GiB
    Duration : 1 h 3 min
    Overall bit rate : 3 287 kb/s
    Encoded date : UTC 2018-10-30 10:59:32
    Writing application : mkvmerge v28.2.0 ( The Awakening ) 64-bit
    Writing library : libebml v1.3.6 + libmatroska v1.4.9
    Cover : Yes
    Attachments : cover

    Video
    ID : 1
    Format : AVC
    Format/Info : Advanced Video Codec
    Format profile : [email protected]
    Format settings : CABAC / 4 Ref Frames
    Format settings, CABAC : Yes
    Format settings, ReFrames : 4 frames
    Codec ID : V_MPEG4/ISO/AVC
    Duration : 1 h 3 min
    Bit rate : 2 900 kb/s
    Width : 1 920 pixels
    Height : 1 080 pixels
    Display aspect ratio : 16:9
    Frame rate mode : Constant
    Frame rate : 29.970 (30000/1001) FPS
    Color space : YUV
    Chroma subsampling : 4:2:0
    Bit depth : 8 bits
    Scan type : Progressive
    Bits/(Pixel*Frame) : 0.047
    Stream size : 1.28 GiB (88%)
    Writing library : x264 core 155 r2901 7d0ff22
    Encoding settings : cabac=1 / ref=2 / deblock=1:0:0 / analyse=0x1:0x111 / me=hex / subme=6 / psy=1 / psy_rd=1.00:0.00 / mixed_ref=1 / me_range=16 / chroma_me=1 / trellis=1 / 8x8dct=0 / cqm=0 / deadzone=21,11 / fast_pskip=1 / chroma_qp_offset=-2 / threads=6 / lookahead_threads=1 / sliced_threads=0 / nr=0 / decimate=1 / interlaced=0 / bluray_compat=0 / constrained_intra=0 / bframes=3 / b_pyramid=2 / b_adapt=1 / b_bias=0 / direct=1 / weightb=1 / open_gop=0 / weightp=1 / keyint=300 / keyint_min=30 / scenecut=40 / intra_refresh=0 / rc_lookahead=30 / rc=2pass / mbtree=1 / bitrate=2900 / ratetol=1.0 / qcomp=0.60 / qpmin=0 / qpmax=69 / qpstep=4 / cplxblur=20.0 / qblur=0.5 / vbv_maxrate=20000 / vbv_bufsize=25000 / nal_hrd=none / filler=0 / ip_ratio=1.40 / aq=1:1.00
    Language : Korean
    Default : Yes
    Forced : No
    Color range : Limited
    Color primaries : BT.709
    Transfer characteristics : BT.709
    Matrix coefficients : BT.709

    Audio #1
    ID : 2
    Format : AAC LC
    Format/Info : Advanced Audio Codec Low Complexity
    Codec ID : A_AAC-2
    Duration : 1 h 3 min
    Bit rate : 192 kb/s
    Channel(s) : 2 channels
    Channel layout : L R
    Sampling rate : 48.0 kHz
    Frame rate : 46.875 FPS (1024 SPF)
    Compression mode : Lossy
    Stream size : 86.6 MiB (6%)
    Language : Korean
    Default : Yes
    Forced : No

    Audio #2
    ID : 3
    Format : AAC LC
    Format/Info : Advanced Audio Codec Low Complexity
    Codec ID : A_AAC-2
    Duration : 1 h 3 min
    Bit rate : 192 kb/s
    Channel(s) : 2 channels
    Channel layout : L R
    Sampling rate : 48.0 kHz
    Frame rate : 46.875 FPS (1024 SPF)
    Compression mode : Lossy
    Stream size : 86.6 MiB (6%)
    Language : Thai
    Default : No
    Forced : No

    Text
    ID : 4
    Format : UTF-8
    Codec ID : S_TEXT/UTF8
    Codec ID/Info : UTF-8 Plain Text
    Duration : 1 h 2 min
    Bit rate : 153 b/s
    Count of elements : 959
    Stream size : 70.5 KiB (0%)
    Language : Thai
    Default : Yes
    Forced : No

    01
    http://www.filecondo.com/dl.php?f=jb48921LS7b7
    02
    http://www.filecondo.com/dl.php?f=ua8fb41LS7c6
    03
    http://www.filecondo.com/dl.php?f=J916ea1LS7d6
    04
    http://www.filecondo.com/dl.php?f=M6546a1LS7e3
    05
    http://www.filecondo.com/dl.php?f=6474141LS7f7
    06
    http://www.filecondo.com/dl.php?f=R11f841LS7g1
    07
    http://www.filecondo.com/dl.php?f=C6bcd81LS7h1
    08
    http://www.filecondo.com/dl.php?f=D7d3a31LS7hY
    09
    http://www.filecondo.com/dl.php?f=5a187d1LS7iY
    10
    http://www.filecondo.com/dl.php?f=Z0bf891LS7jV
    11
    http://www.filecondo.com/dl.php?f=85922b1LS7kU
    12
    http://www.filecondo.com/dl.php?f=Kcef731LS7lW
    13
    http://www.filecondo.com/dl.php?f=U399c31LS7n8
    14
    http://www.filecondo.com/dl.php?f=y14ff71LS7o8
    15
    http://www.filecondo.com/dl.php?f=m046381LS7oZ
    16
    http://www.filecondo.com/dl.php?f=d650a71LS7pR

  2. The Following User Says Thank You to Duckload.us For This Useful Post:

    kappa (06-19-2021)

+ ตอบกลับกระทู้

ข้อมูลกระทู้

Users Browsing this Thread

ในขณะนี้มี 1 ท่านดูกระทู้อยู่. (0 สมาชิกและ 1 ผู้เยี่ยมชม)

     

กฎการโพสต์ข้อความ

  • ท่าน ไม่สามารถ ตั้งกระทู้ใหม่ได้
  • ท่าน ไม่สามารถ ตอบกระทู้ได้
  • ท่าน ไม่สามารถ แนบไฟล์ได้
  • ท่าน ไม่สามารถ แก้ไขข้อความโพสต์ได้
  • BB code สถานะ เปิด
  • Smilies สถานะ เปิด
  • [IMG] สถานะ เปิด
  • HTML สถานะ ปิด