+ ตอบกลับกระทู้
สรุปผลการค้นหา 1 ถึง 3 จากทั้งหมด 3
  1. #1
    Administrators รูปส่วนตัว Duckload.us
    สมัครเมื่อ
    Dec 2010
    โพสต์
    129,763
    Thanks
    7
    Thanked 133,686 Times in 59,197 Posts

    Thumbs up Infinite.2021.1080p.WEB.DL.H264-DD.5.1.Sub.Thai(พากย์:อังกฤษ.DD.5.1).(บรรยาย:ไทย-อังกฤษ)***ซับไทยแปลเองปรับแต่งจากซับกุเกิ้ล***



    อีวาน Evan McCauley (Mark Wahlberg) มีทักษะที่เขาไม่เคยเรียนรู้ และเขามีความทรงจำ

    เกี่ยวกับสถานที่ที่เขาไม่เคยไปเยี่ยมชมหลอกหลอนชีวิ ตประจำวันของเขา

    มีกลุ่มลับที่เรียกตัวเองว่า Infinites ตามหาตัวอีวาน ซึ่งเผยให้เห็นว่าความทรงจำของเขาอาจ

    เป็นจริง แต่ความทรงจำเหล่านั้นมาจากหลายชาติที่แล้ว

    Infinites นำอีวานมาสู่โลกที่ไม่ธรรมดาของพวกเขา ที่ซึ่งมีพรสวรรค์เพียงไม่กี่คนจะได้รับความ

    สามารถในการเกิดใหม่พร้อมกับความทรงจำและความรู้ที่ส ั่งสมมานานหลายศตวรรษ ด้วยความ

    ลับสำคัญที่ถูกฝังไว้ในอดีต อีวานต้องทำงานร่วมกับ Infinites เพื่อไขคำตอบในความทรงจำของ

    เขาในการแข่งขันกับเวลาเพื่อช่วยมนุษยชาติ

    Format : Matroska
    Format version : Version 4
    File size : 6.02 GiB
    Duration : 1 h 46 min
    Overall bit rate : 8 111 kb/s
    Encoded date : UTC 2021-06-13 02:35:40
    Writing application : mkvmerge v43.0.0 ('The Quartermaster') 64-bit
    Writing library : libebml v1.3.10 + libmatroska v1.5.2

    Video
    ID : 1
    Format : AVC
    Format/Info : Advanced Video Codec
    Format profile : [email protected]
    Format settings : CABAC / 4 Ref Frames
    Format settings, CABAC : Yes
    Format settings, Reference frames : 4 frames
    Codec ID : V_MPEG4/ISO/AVC
    Duration : 1 h 46 min
    Bit rate mode : Constant
    Bit rate : 7 457 kb/s
    Nominal bit rate : 10 000 kb/s
    Width : 1 920 pixels
    Height : 800 pixels
    Display aspect ratio : 2.40:1
    Frame rate mode : Constant
    Frame rate : 24.000 FPS
    Color space : YUV
    Chroma subsampling : 4:2:0
    Bit depth : 8 bits
    Scan type : Progressive
    Bits/(Pixel*Frame) : 0.202
    Stream size : 5.54 GiB (92%)
    Default : Yes
    Forced : No
    Color range : Limited
    Color primaries : BT.709
    Transfer characteristics : BT.709
    Matrix coefficients : BT.709

    Audio
    ID : 2
    Format : E-AC-3
    Format/Info : Enhanced AC-3
    Commercial name : Dolby Digital Plus
    Codec ID : A_EAC3
    Duration : 1 h 46 min
    Bit rate mode : Constant
    Bit rate : 640 kb/s
    Channel(s) : 6 channels
    Channel layout : L R C LFE Ls Rs
    Sampling rate : 48.0 kHz
    Frame rate : 31.250 FPS (1536 SPF)
    Compression mode : Lossy
    Stream size : 487 MiB (8%)
    Language : English
    Service kind : Complete Main
    Default : Yes
    Forced : No

    Text #1
    ID : 3
    Format : UTF-8
    Codec ID : S_TEXT/UTF8
    Codec ID/Info : UTF-8 Plain Text
    Duration : 1 h 37 min
    Bit rate : 42 b/s
    Count of elements : 957
    Stream size : 30.4 KiB (0%)
    Language : English
    Default : Yes
    Forced : No

    Text #2
    ID : 4
    Format : PGS
    Muxing mode : zlib
    Codec ID : S_HDMV/PGS
    Codec ID/Info : Picture based subtitle format used on BDs/HD-DVDs
    Duration : 1 h 37 min
    Bit rate : 36.4 kb/s
    Count of elements : 1914
    Stream size : 25.3 MiB (0%)
    Language : Thai
    Default : No
    Forced : No

    Text #3
    ID : 5
    Format : VobSub
    Muxing mode : zlib
    Codec ID : S_VOBSUB
    Codec ID/Info : Picture based subtitle format used on DVDs
    Duration : 1 h 37 min
    Bit rate : 6 394 b/s
    Count of elements : 957
    Stream size : 4.44 MiB (0%)
    Language : Thai
    Default : No
    Forced : No

    Text #4
    ID : 6
    Format : UTF-8
    Codec ID : S_TEXT/UTF8
    Codec ID/Info : UTF-8 Plain Text
    Duration : 1 h 36 min
    Bit rate : 99 b/s
    Count of elements : 952
    Stream size : 70.6 KiB (0%)
    Language : Thai
    Default : No
    Forced : No





    ***ซับไทยแปลเองปรับแต่งจากซับกุเกิ้ล***
    Download:cornfile
    http://cornfile.com/nw3fi454mhzw
    Download:filecondo
    http://www.filecondo.com/dl.php?f=X1d7041LSoqA

  2. The Following User Says Thank You to Duckload.us For This Useful Post:

    jackjangri (06-19-2021)

  3. #2
    Senior Member รูปส่วนตัว Abuzayas47
    สมัครเมื่อ
    Apr 2020
    โพสต์
    142
    Thanks
    0
    Thanked 0 Times in 0 Posts
    ขอบคุณครับ

  4. #3
    Senior Member
    สมัครเมื่อ
    Jun 2011
    โพสต์
    261
    Thanks
    414
    Thanked 40 Times in 29 Posts
    ขอบคุณครับ

+ ตอบกลับกระทู้

ข้อมูลกระทู้

Users Browsing this Thread

ในขณะนี้มี 1 ท่านดูกระทู้อยู่. (0 สมาชิกและ 1 ผู้เยี่ยมชม)

     

กฎการโพสต์ข้อความ

  • ท่าน ไม่สามารถ ตั้งกระทู้ใหม่ได้
  • ท่าน ไม่สามารถ ตอบกระทู้ได้
  • ท่าน ไม่สามารถ แนบไฟล์ได้
  • ท่าน ไม่สามารถ แก้ไขข้อความโพสต์ได้
  • BB code สถานะ เปิด
  • Smilies สถานะ เปิด
  • [IMG] สถานะ เปิด
  • HTML สถานะ ปิด