+ ตอบกลับกระทู้
สรุปผลการค้นหา 1 ถึง 3 จากทั้งหมด 3
  1. #1
    Administrators รูปส่วนตัว Duckload.us
    สมัครเมื่อ
    Dec 2010
    โพสต์
    129,774
    Thanks
    7
    Thanked 133,686 Times in 59,197 Posts

    Thumbs up BLOOD VESSEL (2019) เรือนรกเลือดต้องสาป WEB-DL AC3-2.0 [พากย์:ไทย/อังกฤษ][SUB:ไทยฝัง][720p]



    ใกล้สิ้นสุดสงครามโลกครั้งที่ 2 ผู้รอดชีวิตจากเรือพยาบาลที่ถูกตอร์ปิโดของข้าศึกถล่ มกลุ่มหนึ่งได้รอดชีวิตบนเรือชูชีพ เมื่อไม่มีอาหาร น้ำ ดูเหมือนทุกอย่างจะสิ้นหวัง จนกระทั่งเรือกวาดทุ่นระเบิดของเยอรมันที่เงียบอย่าง น่าขนลุกแล่นเข้าหาพวกเขาอย่างเป็นลางไม่ดี ทำให้พวกเขามีโอกาสรอดเป็นครั้งสุดท้าย ชะตากรรมอันชั่วร้ายบางอย่างได้เกิดขึ้นกับลูกเรือชา วเยอรมันของเรือลำนี้ ความลึกลับยิ่งลึกซึ้งขึ้นเมื่อพวกเขาได้พบกับเด็กสา วชาวโรมาเนีย

    Format : Matroska
    Format version : Version 4
    File size : 3.50 GiB
    Duration : 1 h 29 min
    Overall bit rate mode : Constant
    Overall bit rate : 5 582 kb/s
    Movie name : Blood Vessel (2019)_©GOLD CUP™_WWW.TT-TORRENT.COM

    Video
    ID : 1
    Format : AVC
    Format/Info : Advanced Video Codec
    Format profile : [email protected]
    Format settings : CABAC / 1 Ref Frames
    Format settings, CABAC : Yes
    Format settings, Reference : 1 frame
    Format settings, GOP : M=1, N=25
    Codec ID : V_MPEG4/ISO/AVC
    Duration : 1 h 29 min
    Bit rate mode : Constant
    Bit rate : 5 200 kb/s
    Width : 1 280 pixels
    Height : 720 pixels
    Display aspect ratio : 16:9
    Frame rate mode : Constant
    Frame rate : 29.970 (30000/1001) FPS
    Color space : YUV
    Chroma subsampling : 4:2:0
    Bit depth : 8 bits
    Scan type : Progressive
    Bits/(Pixel*Frame) : 0.188
    Stream size : 3.26 GiB (93%)
    Title : Blood Vessel (2019)_©GOLD CUP™
    Language : Thai
    Default : Yes
    Forced : No

    Audio #1
    ID : 2
    Format : AC-3
    Format/Info : Audio Coding 3
    Commercial name : Dolby Digital
    Codec ID : A_AC3
    Duration : 1 h 29 min
    Bit rate mode : Constant
    Bit rate : 192 kb/s
    Channel(s) : 2 channels
    Channel layout : L R
    Sampling rate : 44.1 kHz
    Frame rate : 28.711 FPS (1536 SPF)
    Compression mode : Lossy
    Stream size : 123 MiB (3%)
    Title : Th.2.0.AC3.192k
    Language : Thai
    Service kind : Complete Main
    Default : Yes
    Forced : No

    Audio #2
    ID : 3
    Format : AC-3
    Format/Info : Audio Coding 3
    Commercial name : Dolby Digital
    Codec ID : A_AC3
    Duration : 1 h 29 min
    Bit rate mode : Constant
    Bit rate : 192 kb/s
    Channel(s) : 2 channels
    Channel layout : L R
    Sampling rate : 44.1 kHz
    Frame rate : 28.711 FPS (1536 SPF)
    Compression mode : Lossy
    Stream size : 123 MiB (3%)
    Title : En.2.0.AC3.192k
    Language : English
    Service kind : Complete Main
    Default : No
    Forced : No





    Download:cornfile
    http://cornfile.com/duzwgj7vk3c3
    Download:filecondo
    http://www.filecondo.com/dl.php?f=t68a3d1LSo4H

  2. The Following User Says Thank You to Duckload.us For This Useful Post:

    noi54 (06-14-2021)

  3. #2
    Senior Member
    สมัครเมื่อ
    Jul 2012
    โพสต์
    7,623
    Thanks
    0
    Thanked 0 Times in 0 Posts
    ขอบคุณมากจ้า

  4. #3
    Senior Member
    สมัครเมื่อ
    Jul 2013
    โพสต์
    2,514
    Thanks
    0
    Thanked 0 Times in 0 Posts
    ขอบคุณครับ

+ ตอบกลับกระทู้

ข้อมูลกระทู้

Users Browsing this Thread

ในขณะนี้มี 1 ท่านดูกระทู้อยู่. (0 สมาชิกและ 1 ผู้เยี่ยมชม)

     

กฎการโพสต์ข้อความ

  • ท่าน ไม่สามารถ ตั้งกระทู้ใหม่ได้
  • ท่าน ไม่สามารถ ตอบกระทู้ได้
  • ท่าน ไม่สามารถ แนบไฟล์ได้
  • ท่าน ไม่สามารถ แก้ไขข้อความโพสต์ได้
  • BB code สถานะ เปิด
  • Smilies สถานะ เปิด
  • [IMG] สถานะ เปิด
  • HTML สถานะ ปิด