+ ตอบกลับกระทู้
สรุปผลการค้นหา 1 ถึง 4 จากทั้งหมด 4
  1. #1
    Administrators รูปส่วนตัว Duckload.us
    สมัครเมื่อ
    Dec 2010
    โพสต์
    129,765
    Thanks
    7
    Thanked 133,686 Times in 59,197 Posts

    Thumbs up ✬✬จัดทำใหม่✬✬ [ฝรั่ง] [Web-DL] [FULL-HD / Mini-HD] Artemis Fowl (2020) : ผจญภัยสายลับใต้พิภพ 1080p. [เสียง:อังกฤษAC3 5.1 เท่านั้น]- [บรรยาย:ไทย,อังกฤษ] ★★ซับไทย PGS★★



    เรื่องราวการผจญภัยของเด็กชายวัย 12 ปี "Artemis Fowl" เขาเป็นผู้สืบสอดสายเลือดของอาญชากรผู้มีปัญญาเฉียบแ หลม Artemis ต้องออกค้นหาพ่อของเขาที่ได้หายตัวไปอย่างปริศนา และด้วยการช่วยเหลือจากพ่อบ้านผู้ภักดี เขาได้ค้นพบเมืองโบราณใต้ดิน โลกแห่งนางฟ้าที่มีอารยธรรมขั้นสูงและน่าอัศจรรย์ และพบความจริงว่าการหายตัวไปของพ่อของเขานั้นมีความเ กี่ยวข้องบางอย่างกับโลกลึกลับของนางฟ้าแห่งนี้ เขาจึงวางแผนการโดยมีการช่วยเหลือจากเพื่อนต่างโลกโด ยไม่รู้เลยว่าอันตรายครั้งใหญ่กำลังใกล้เข้ามา..

    Format : Matroska
    Format version : Version 4
    File size : 5.44 GiB
    Duration : 1 h 34 min
    Overall bit rate : 8 260 kb/s
    Movie name : Artemis.Fowl.2020.1080p.WEB-DL DD5.1.x264-EntHD_ProMaster
    Encoded date : UTC 2021-06-03 07:30:20
    Writing application : mkvmerge v28.2.0 ('The Awakening') 64-bit
    Writing library : libebml v1.3.6 + libmatroska v1.4.9
    Cover : Yes
    Attachments : cover.jpg

    Video
    ID : 1
    Format : AVC
    Format/Info : Advanced Video Codec
    Format profile : [email protected]
    Format settings : CABAC / 5 Ref Frames
    Format settings, CABAC : Yes
    Format settings, Reference frames : 5 frames
    Codec ID : V_MPEG4/ISO/AVC
    Duration : 1 h 34 min
    Bit rate : 7 500 kb/s
    Width : 1 920 pixels
    Height : 804 pixels
    Display aspect ratio : 2.40:1
    Frame rate mode : Constant
    Frame rate : 23.976 (24000/1001) FPS
    Color space : YUV
    Chroma subsampling : 4:2:0
    Bit depth : 8 bits
    Scan type : Progressive
    Bits/(Pixel*Frame) : 0.203
    Stream size : 4.82 GiB (89%)
    Title : EntHD_ProMaster
    Writing library : x264 core 157 r2935 545de2f
    Encoding settings : cabac=1 / ref=5 / deblock=1:0:0 / analyse=0x3:0x113 / me=hex / subme=8 / psy=1 / psy_rd=1.00:0.00 / mixed_ref=1 / me_range=16 / chroma_me=1 / trellis=2 / 8x8dct=1 / cqm=0 / deadzone=21,11 / fast_pskip=1 / chroma_qp_offset=-2 / threads=12 / lookahead_threads=2 / sliced_threads=0 / nr=0 / decimate=1 / interlaced=0 / bluray_compat=0 / constrained_intra=0 / bframes=3 / b_pyramid=2 / b_adapt=1 / b_bias=0 / direct=3 / weightb=1 / open_gop=0 / weightp=2 / keyint=240 / keyint_min=24 / scenecut=40 / intra_refresh=0 / rc_lookahead=50 / rc=abr / mbtree=1 / bitrate=7500 / ratetol=1.0 / qcomp=0.60 / qpmin=0 / qpmax=69 / qpstep=4 / vbv_maxrate=62500 / vbv_bufsize=78125 / nal_hrd=none / filler=0 / ip_ratio=1.40 / aq=1:1.00
    Language : English
    Default : Yes
    Forced : No
    Color range : Limited
    Color primaries : BT.709
    Transfer characteristics : BT.709
    Matrix coefficients : BT.709

    Audio #1
    ID : 2
    Format : E-AC-3
    Format/Info : Enhanced AC-3
    Commercial name : Dolby Digital Plus
    Codec ID : A_EAC3
    Duration : 1 h 34 min
    Bit rate mode : Constant
    Bit rate : 256 kb/s
    Channel(s) : 6 channels
    Channel layout : L R C LFE Ls Rs
    Sampling rate : 48.0 kHz
    Frame rate : 31.250 FPS (1536 SPF)
    Compression mode : Lossy
    Stream size : 173 MiB (3%)
    Title : English E-AC3 5.1
    Language : English
    Service kind : Complete Main
    Default : Yes
    Forced : No

    Audio #2
    ID : 3
    Format : AC-3
    Format/Info : Audio Coding 3
    Commercial name : Dolby Digital
    Codec ID : A_AC3
    Duration : 1 h 34 min
    Bit rate mode : Constant
    Bit rate : 640 kb/s
    Channel(s) : 6 channels
    Channel layout : L R C LFE Ls Rs
    Sampling rate : 48.0 kHz
    Frame rate : 31.250 FPS (1536 SPF)
    Compression mode : Lossy
    Delay relative to video : -5 ms
    Stream size : 432 MiB (8%)
    Title : English AC3 5.1
    Language : English
    Service kind : Complete Main
    Default : No
    Forced : No

    Text #1
    ID : 4
    Format : UTF-8
    Codec ID : S_TEXT/UTF8
    Codec ID/Info : UTF-8 Plain Text
    Duration : 1 h 27 min
    Bit rate : 63 b/s
    Count of elements : 1515
    Stream size : 40.7 KiB (0%)
    Title : Eng
    Language : English
    Default : Yes
    Forced : No

    Text #2
    ID : 5
    Format : PGS
    Muxing mode : zlib
    Codec ID : S_HDMV/PGS
    Codec ID/Info : Picture based subtitle format used on BDs/HD-DVDs
    Duration : 1 h 33 min
    Bit rate : 37.3 kb/s
    Count of elements : 3024
    Stream size : 24.9 MiB (0%)
    Title : Thai PGS
    Language : Thai
    Default : No
    Forced : No

    Text #3
    ID : 6
    Format : PGS
    Muxing mode : zlib
    Codec ID : S_HDMV/PGS
    Codec ID/Info : Picture based subtitle format used on BDs/HD-DVDs
    Duration : 1 h 33 min
    Bit rate : 37.3 kb/s
    Count of elements : 3024
    Stream size : 24.9 MiB (0%)
    Title : Thai PGS LOW
    Language : Thai
    Default : No
    Forced : No

    Text #4
    ID : 7
    Format : VobSub
    Muxing mode : zlib
    Codec ID : S_VOBSUB
    Codec ID/Info : Picture based subtitle format used on DVDs
    Duration : 1 h 33 min
    Bit rate : 8 122 b/s
    Count of elements : 1512
    Stream size : 5.42 MiB (0%)
    Title : Thai 1080p
    Language : Thai
    Default : No
    Forced : No

    Text #5
    ID : 8
    Format : VobSub
    Muxing mode : zlib
    Codec ID : S_VOBSUB
    Codec ID/Info : Picture based subtitle format used on DVDs
    Duration : 1 h 33 min
    Bit rate : 8 122 b/s
    Count of elements : 1512
    Stream size : 5.42 MiB (0%)
    Title : Thai 1080p LOW
    Language : Thai
    Default : No
    Forced : No

    Text #6
    ID : 9
    Format : UTF-8
    Codec ID : S_TEXT/UTF8
    Codec ID/Info : UTF-8 Plain Text
    Duration : 1 h 33 min
    Bit rate : 143 b/s
    Count of elements : 1512
    Stream size : 98.2 KiB (0%)
    Title : Thai SRT
    Language : Thai
    Default : No
    Forced : No






    Download:cornfile
    http://cornfile.com/igag3stmymoc
    Download:filecondo
    http://www.filecondo.com/dl.php?f=e4342b1LSG6V

  2. The Following 2 Users Say Thank You to Duckload.us For This Useful Post:

    gaszolineskywalker (07-13-2021), noi54 (06-15-2021)

  3. #2
    Senior Member
    สมัครเมื่อ
    Jul 2013
    โพสต์
    2,514
    Thanks
    0
    Thanked 0 Times in 0 Posts
    สนุกดี ไม่ได้ดูแนวนี้มานานเลย ขอบคุณครับ

  4. #3
    Senior Member รูปส่วนตัว Abuzayas47
    สมัครเมื่อ
    Apr 2020
    โพสต์
    142
    Thanks
    0
    Thanked 0 Times in 0 Posts
    ขอบคุณครับ

  5. #4
    Senior Member
    สมัครเมื่อ
    Oct 2012
    โพสต์
    1,619
    Thanks
    2,551
    Thanked 0 Times in 0 Posts
    ขอบคุณครับ

+ ตอบกลับกระทู้

ข้อมูลกระทู้

Users Browsing this Thread

ในขณะนี้มี 1 ท่านดูกระทู้อยู่. (0 สมาชิกและ 1 ผู้เยี่ยมชม)

     

กฎการโพสต์ข้อความ

  • ท่าน ไม่สามารถ ตั้งกระทู้ใหม่ได้
  • ท่าน ไม่สามารถ ตอบกระทู้ได้
  • ท่าน ไม่สามารถ แนบไฟล์ได้
  • ท่าน ไม่สามารถ แก้ไขข้อความโพสต์ได้
  • BB code สถานะ เปิด
  • Smilies สถานะ เปิด
  • [IMG] สถานะ เปิด
  • HTML สถานะ ปิด