+ ตอบกลับกระทู้
สรุปผลการค้นหา 1 ถึง 2 จากทั้งหมด 2
  1. #1
    Administrators รูปส่วนตัว Duckload.us
    สมัครเมื่อ
    Dec 2010
    โพสต์
    129,768
    Thanks
    7
    Thanked 133,686 Times in 59,197 Posts

    Thumbs up [จีน]-[2021] Endgame - สลับร่าง เปลี่ยนชีวิต-WEB-DL.H.264.1080p. [Modified]-[Soundtrack บรรยายไทย]



    A world-class hitman ends up swapping identities with a down-to-luck extra actor during an accident.

    General
    Unique ID : 149029740746506848135269835625772540442 (0x701E15830AD27148A08FFB006FA6E21A)
    Complete name : [2021] Endgame - สลับร่าง เปลี่ยนชีวิต WEB-DL 1080p H264 (CrazyyyMovie).mkv
    Format : Matroska
    Format version : Version 4 / Version 2
    File size : 1.75 GiB
    Duration : 1 h 59 min
    Overall bit rate : 2 092 kb/s
    Encoded date : UTC 2021-06-01 17:18:16
    Writing application : mkvmerge v19.0.0 ('Brave Captain') 64-bit
    Writing library : libebml v1.3.5 + libmatroska v1.4.8

    Video
    ID : 1
    Format : AVC
    Format/Info : Advanced Video Codec
    Format profile : [email protected]
    Format settings : CABAC / 3 Ref Frames
    Format settings, CABAC : Yes
    Format settings, ReFrames : 3 frames
    Codec ID : V_MPEG4/ISO/AVC
    Duration : 1 h 59 min
    Bit rate : 1 451 kb/s
    Width : 1 920 pixels
    Height : 760 pixels
    Display aspect ratio : 2.526
    Frame rate mode : Constant
    Frame rate : 24.000 FPS
    Color space : YUV
    Chroma subsampling : 4:2:0
    Bit depth : 8 bits
    Scan type : Progressive
    Bits/(Pixel*Frame) : 0.041
    Stream size : 1.21 GiB (69%)
    Writing library : qiyi.com vtc-test
    Default : Yes
    Forced : No
    Color range : Limited
    Color primaries : BT.709
    Transfer characteristics : BT.709
    Matrix coefficients : BT.709

    Audio #1
    ID : 2
    Format : E-AC-3
    Format/Info : Enhanced Audio Coding 3
    Codec ID : A_EAC3
    Duration : 1 h 59 min
    Bit rate mode : Constant
    Bit rate : 448 kb/s
    Channel(s) : 6 channels
    Channel positions : Front: L C R, Side: L R, LFE
    Sampling rate : 48.0 kHz
    Frame rate : 187.500 FPS (256 SPF)
    Compression mode : Lossy
    Stream size : 384 MiB (21%)
    Title : 国 语 DDP 5.1
    Language : Chinese
    Service kind : Complete Main
    Default : Yes
    Forced : No

    Audio #2
    ID : 3
    Format : AAC
    Format/Info : Advanced Audio Codec
    Format profile : LC
    Codec ID : A_AAC-2
    Duration : 1 h 59 min
    Bit rate : 192 kb/s
    Channel(s) : 2 channels
    Channel positions : Front: L R
    Sampling rate : 44.1 kHz
    Frame rate : 43.066 FPS (1024 SPF)
    Compression mode : Lossy
    Stream size : 163 MiB (9%)
    Title : 国 语 AAC 2.0
    Language : Chinese
    Default : No
    Forced : No

    Text #1
    ID : 4
    Format : UTF-8
    Codec ID : S_TEXT/UTF8
    Codec ID/Info : UTF-8 Plain Text
    Duration : 1 h 53 min
    Bit rate : 32 b/s
    Count of elements : 1763
    Stream size : 27.3 KiB (0%)
    Title : 简 体 中 文
    Language : Chinese
    Default : Yes
    Forced : No

    Text #2
    ID : 5
    Format : UTF-8
    Codec ID : S_TEXT/UTF8
    Codec ID/Info : UTF-8 Plain Text
    Duration : 1 h 53 min
    Bit rate : 32 b/s
    Count of elements : 1763
    Stream size : 27.3 KiB (0%)
    Title : 繁 体 中 文
    Language : Chinese
    Default : No
    Forced : No

    Text #3
    ID : 6
    Format : UTF-8
    Codec ID : S_TEXT/UTF8
    Codec ID/Info : UTF-8 Plain Text
    Duration : 1 h 53 min
    Bit rate : 39 b/s
    Count of elements : 1777
    Stream size : 32.5 KiB (0%)
    Title : 英 语
    Language : English
    Default : No
    Forced : No

    Text #4
    ID : 7
    Format : UTF-8
    Codec ID : S_TEXT/UTF8
    Codec ID/Info : UTF-8 Plain Text
    Duration : 1 h 56 min
    Bit rate : 95 b/s
    Count of elements : 1795
    Stream size : 81.9 KiB (0%)
    Title : 泰 语
    Language : Thai
    Default : No
    Forced : No

    Text #5
    ID : 8
    Format : UTF-8
    Codec ID : S_TEXT/UTF8
    Codec ID/Info : UTF-8 Plain Text
    Duration : 1 h 56 min
    Bit rate : 57 b/s
    Count of elements : 1794
    Stream size : 49.5 KiB (0%)
    Title : 越 南 语
    Language : Vietnamese
    Default : No
    Forced : No





    Download:cornfile
    http://cornfile.com/3qir7hpmspom
    Download:filecondo
    http://www.filecondo.com/dl.php?f=6614291LSGgE

  2. The Following User Says Thank You to Duckload.us For This Useful Post:

    masaomi (06-15-2021)

  3. #2
    Senior Member
    สมัครเมื่อ
    Jul 2013
    โพสต์
    2,514
    Thanks
    0
    Thanked 0 Times in 0 Posts
    ขอบคุณครับ

+ ตอบกลับกระทู้

ข้อมูลกระทู้

Users Browsing this Thread

ในขณะนี้มี 1 ท่านดูกระทู้อยู่. (0 สมาชิกและ 1 ผู้เยี่ยมชม)

     

กฎการโพสต์ข้อความ

  • ท่าน ไม่สามารถ ตั้งกระทู้ใหม่ได้
  • ท่าน ไม่สามารถ ตอบกระทู้ได้
  • ท่าน ไม่สามารถ แนบไฟล์ได้
  • ท่าน ไม่สามารถ แก้ไขข้อความโพสต์ได้
  • BB code สถานะ เปิด
  • Smilies สถานะ เปิด
  • [IMG] สถานะ เปิด
  • HTML สถานะ ปิด