+ ตอบกลับกระทู้
สรุปผลการค้นหา 1 ถึง 7 จากทั้งหมด 7
  1. #1
    Administrators รูปส่วนตัว Duckload.us
    สมัครเมื่อ
    Dec 2010
    โพสต์
    129,844
    Thanks
    7
    Thanked 133,711 Times in 59,209 Posts

    Thumbs up [ญี่ปุ่น]-Kimetsu no Yaiba the Movie Mugen Train (2020) ดาบพิฆาตอสูร เดอะมูฟวี่ ศึกรถไฟสู่นิรันดร์ [เสียง:ญี่ปุ่น DTS-ไทย Master IQIYI AC-3][บรรยาย: ไทย IQIYI-อังกฤษ-ญี่ปุ่น PGS] -Blu-ray.H.264.1080p. [rip from Master]-[พากย์ไทย บรรยายไทย]



    เรื่องย่อ : เรื่องราวที่ต่อเนื่องทันทีจากฉบับอนิเมะซีรีส์ เมื่อก๊วนเพื่อนของทั้งทันจิโร่ และเนซึโกะ ได้รับภารกิจให้ไปสืบสวนหาสาเหตุการหายตัวไปของผู้คน บนขบวนรถไฟสู่นิรันดร์ พวกเขาจึงได้รู้ว่าบนขบวนรถไฟลำนี้มีอสูรทรงพลังซ่อน ตัวอยู่ แต่คราวนี้พวกเขาก็ไม่จำเป็นต้องต่อสู้กันตามลำพัง เพราะเสาหลักแห่งไฟ เรนโงคุ ได้เข้าร่วมศึกด้วย นี่จึงกลายเป็นการต่อสู้เพื่อช่วยเหลือผู้คนบริสุทธิ ์บนขบวนรถไฟแห่งฝันร้าย ที่จะนำไปสู่เรื่องราวที่แฟน ๆ ฉบับมังงะยกย่องให้เป็นอีกหนึ่งเรื่องราวที่สนุกที่ส ุดของซีรีส์อนิเมะชุดนี้ ใครที่กำลังรอภาพยนตร์เรื่องนี้อยู่ก็อดใจรอกันอีกไม ่นาน แล้วพบกันในโรงภาพยนตร์!

    Video
    ID : 1
    Format : AVC
    Format/Info : Advanced Video Codec
    Format profile : [email protected]
    Format settings : CABAC / 1 Ref Frames
    Format settings, CABAC : Yes
    Format settings, Reference fra : 1 frame
    Format settings, GOP : M=1, N=24
    Codec ID : V_MPEG4/ISO/AVC
    Duration : 1 h 56 min
    Bit rate mode : Constant
    Bit rate : 4 184 kb/s
    Nominal bit rate : 4 565 kb/s
    Width : 1 920 pixels
    Height : 1 080 pixels
    Display aspect ratio : 16:9
    Frame rate mode : Constant
    Frame rate : 23.976 (24000/1001) FPS
    Color space : YUV
    Chroma subsampling : 4:2:0
    Bit depth : 8 bits
    Scan type : Progressive
    Bits/(Pixel*Frame) : 0.084
    Stream size : 3.41 GiB (48%)
    Default : Yes
    Forced : No
    Color range : Limited
    Color primaries : BT.709
    Transfer characteristics : BT.709
    Matrix coefficients : BT.709

    Audio #1
    ID : 2
    Format : DTS XLL
    Format/Info : Digital Theater Systems
    Commercial name : DTS-HD Master Audio
    Codec ID : A_DTS
    Duration : 1 h 56 min
    Bit rate mode : Variable
    Bit rate : 3 823 kb/s
    Channel(s) : 6 channels
    Channel layout : C L R Ls Rs LFE
    Sampling rate : 48.0 kHz
    Frame rate : 93.750 FPS (512 SPF)
    Bit depth : 24 bits
    Compression mode : Lossless
    Stream size : 3.12 GiB (44%)
    Title : [DTS-Japanese]
    Language : Japanese
    Default : No
    Forced : No

    Audio #2
    ID : 3
    Format : AC-3
    Format/Info : Audio Coding 3
    Commercial name : Dolby Digital
    Codec ID : A_AC3
    Duration : 1 h 56 min
    Bit rate mode : Constant
    Bit rate : 640 kb/s
    Channel(s) : 2 channels
    Channel layout : L R
    Sampling rate : 48.0 kHz
    Frame rate : 31.250 FPS (1536 SPF)
    Compression mode : Lossy
    Stream size : 535 MiB (7%)
    Title : [Thai-AC-3]
    Language : Thai
    Service kind : Complete Main
    Default : Yes
    Forced : No

    Text #1
    ID : 4
    Format : PGS
    Muxing mode : zlib
    Codec ID : S_HDMV/PGS
    Codec ID/Info : Picture based subtitle format used on BDs/HD-DVDs
    Duration : 1 h 51 min
    Bit rate : 49.1 kb/s
    Count of elements : 2622
    Stream size : 39.3 MiB (1%)
    Title : [Thai EucrosiaUPC PGS]
    Language : Thai
    Default : Yes
    Forced : No

    Text #2
    ID : 5
    Format : PGS
    Muxing mode : zlib
    Codec ID : S_HDMV/PGS
    Codec ID/Info : Picture based subtitle format used on BDs/HD-DVDs
    Duration : 1 h 51 min
    Bit rate : 49.0 kb/s
    Count of elements : 2622
    Stream size : 39.2 MiB (1%)
    Title : [Thai TH Sarabun New PGS]
    Language : Thai
    Default : No
    Forced : No

    Text #3
    ID : 6
    ID in the original source medi : 4608 (0x1200)
    Format : PGS
    Muxing mode : zlib
    Codec ID : S_HDMV/PGS
    Codec ID/Info : Picture based subtitle format used on BDs/HD-DVDs
    Duration : 1 h 55 min
    Bit rate : 30.5 kb/s
    Count of elements : 3088
    Stream size : 25.3 MiB (0%)
    Title : [Japanese PGS]
    Language : Japanese
    Default : No
    Forced : No
    Original source medium : Blu-ray

    Text #4
    ID : 7
    ID in the original source medi : 4609 (0x1201)
    Format : PGS
    Muxing mode : zlib
    Codec ID : S_HDMV/PGS
    Codec ID/Info : Picture based subtitle format used on BDs/HD-DVDs
    Duration : 1 h 55 min
    Bit rate : 31.4 kb/s
    Count of elements : 2902
    Stream size : 26.0 MiB (0%)
    Title : [English-PGS]
    Language : English
    Default : No
    Forced : No
    Original source medium : Blu-ray

    Menu
    00:00:00.000 : Chapter 01
    00:05:28.828 : Chapter 02
    00:16:10.678 : Chapter 03
    00:23:02.589 : Chapter 04
    00:35:00.723 : Chapter 05
    00:44:45.683 : Chapter 06
    00:50:19.933 : Chapter 07
    01:00:58.571 : Chapter 08
    01:06:12.259 : Chapter 09
    01:19:23.091 : Chapter 10
    01:31:04.750 : Chapter 11
    01:47:11.216 : Chapter 12
    01:51:55.875 : Chapter 13









    Download:cornfile
    http://cornfile.com/nxbbg5zekg2r
    Download:filecondo
    http://www.filecondo.com/dl.php?f=lcbf0a1LTIUp

  2. The Following 8 Users Say Thank You to Duckload.us For This Useful Post:

    amorn wichian (06-23-2021), jackjangri (06-27-2021), masaomi (06-19-2021), poona14 (06-23-2021), sawara (06-19-2021), spiderpud2 (07-08-2021), virusring (06-17-2021), Wesker_TOT (06-18-2021)

  3. #2
    Member
    สมัครเมื่อ
    Sep 2019
    โพสต์
    36
    Thanks
    0
    Thanked 0 Times in 0 Posts
    ขอบคุณครับ

  4. #3
    Senior Member
    สมัครเมื่อ
    Dec 2013
    โพสต์
    3,161
    Thanks
    5,077
    Thanked 0 Times in 0 Posts
    ขอบคุณครับ...

  5. #4
    Senior Member
    สมัครเมื่อ
    Jul 2012
    โพสต์
    7,625
    Thanks
    0
    Thanked 0 Times in 0 Posts
    ขอบคุณมากจ้า

  6. #5
    Senior Member
    สมัครเมื่อ
    Dec 2013
    โพสต์
    467
    Thanks
    401
    Thanked 0 Times in 0 Posts
    ขอบคุณครับบ

  7. #6
    Junior Member
    สมัครเมื่อ
    Nov 2018
    โพสต์
    15
    Thanks
    0
    Thanked 0 Times in 0 Posts
    file condo vip โหลดไม่ได้เลยค่ะ

  8. #7
    Senior Member
    สมัครเมื่อ
    Jun 2011
    โพสต์
    262
    Thanks
    415
    Thanked 40 Times in 29 Posts
    ขอบคุณครับ

+ ตอบกลับกระทู้

ข้อมูลกระทู้

Users Browsing this Thread

ในขณะนี้มี 1 ท่านดูกระทู้อยู่. (0 สมาชิกและ 1 ผู้เยี่ยมชม)

     

กฎการโพสต์ข้อความ

  • ท่าน ไม่สามารถ ตั้งกระทู้ใหม่ได้
  • ท่าน ไม่สามารถ ตอบกระทู้ได้
  • ท่าน ไม่สามารถ แนบไฟล์ได้
  • ท่าน ไม่สามารถ แก้ไขข้อความโพสต์ได้
  • BB code สถานะ เปิด
  • Smilies สถานะ เปิด
  • [IMG] สถานะ เปิด
  • HTML สถานะ ปิด