+ ตอบกลับกระทู้
สรุปผลการค้นหา 1 ถึง 2 จากทั้งหมด 2
  1. #1
    Administrators รูปส่วนตัว Duckload.us
    สมัครเมื่อ
    Dec 2010
    โพสต์
    129,844
    Thanks
    7
    Thanked 133,711 Times in 59,209 Posts

    Thumbs up [ฝรั่ง]-The Education of Fredrick Fitzell 2021 - [Soundtrack] [บรรยายไทย+อังกฤษ] 1080p.AMZN.WEBRip.DDP5.1.x264




    ชายหนุ่มคนหนึ่ง ที่จะคลี่คลายปมต่างๆเกี่ยวกับหญิงสาวที่หายตัวไปอย่ างลึกลับ อีกทั้งยังมีสิ่งมีชีวิตที่น่ากลัวคอยติดตามเขาอยู่

    Duration : 1 h 37 min
    Overall bit rate : 4 479 kb/s
    Encoded date : UTC 2021-06-16 10:33:17
    Writing application : mkvmerge v58.0.0 ('Supper's Ready') 64-bit
    Writing library : libebml v1.4.2 + libmatroska v1.6.4
    Cover : Yes
    Attachments : cover

    Video
    ID : 1
    Format : AVC
    Format/Info : Advanced Video Codec
    Format profile : [email protected]
    Format settings : CABAC / 4 Ref Frames
    Format settings, CABAC : Yes
    Format settings, Reference frames : 4 frames
    Codec ID : V_MPEG4/ISO/AVC
    Duration : 1 h 37 min
    Bit rate mode : Constant
    Bit rate : 3 817 kb/s
    Nominal bit rate : 10 000 kb/s
    Width : 1 920 pixels
    Height : 816 pixels
    Display aspect ratio : 2.35:1
    Frame rate mode : Constant
    Frame rate : 24.000 FPS
    Color space : YUV
    Chroma subsampling : 4:2:0
    Bit depth : 8 bits
    Scan type : Progressive
    Bits/(Pixel*Frame) : 0.102
    Stream size : 2.59 GiB (85%)
    Language : English
    Default : Yes
    Forced : No
    Color range : Limited
    Color primaries : BT.709
    Transfer characteristics : BT.709
    Matrix coefficients : BT.709

    Audio
    ID : 2
    Format : E-AC-3
    Format/Info : Enhanced AC-3
    Commercial name : Dolby Digital Plus
    Codec ID : A_EAC3
    Duration : 1 h 37 min
    Bit rate mode : Constant
    Bit rate : 640 kb/s
    Channel(s) : 6 channels
    Channel layout : L R C LFE Ls Rs
    Sampling rate : 48.0 kHz
    Frame rate : 31.250 FPS (1536 SPF)
    Compression mode : Lossy
    Stream size : 444 MiB (14%)
    Language : English
    Service kind : Complete Main
    Default : Yes
    Forced : No

    Text #1
    ID : 3
    Format : UTF-8
    Codec ID : S_TEXT/UTF8
    Codec ID/Info : UTF-8 Plain Text
    Duration : 1 h 30 min
    Bit rate : 35 b/s
    Count of elements : 929
    Stream size : 23.4 KiB (0%)
    Language : English
    Default : No
    Forced : No

    Text #2
    ID : 4
    Format : PGS
    Muxing mode : zlib
    Codec ID : S_HDMV/PGS
    Codec ID/Info : Picture based subtitle format used on BDs/HD-DVDs
    Duration : 1 h 30 min
    Bit rate : 25.6 kb/s
    Count of elements : 1858
    Stream size : 16.6 MiB (1%)
    Language : English
    Default : No
    Forced : No

    Text #3
    ID : 5
    Format : UTF-8
    Codec ID : S_TEXT/UTF8
    Codec ID/Info : UTF-8 Plain Text
    Duration : 1 h 31 min
    Bit rate : 68 b/s
    Count of elements : 724
    Stream size : 45.9 KiB (0%)
    Language : Thai
    Default : No
    Forced : No

    Text #4
    ID : 6
    Format : PGS
    Muxing mode : zlib
    Codec ID : S_HDMV/PGS
    Codec ID/Info : Picture based subtitle format used on BDs/HD-DVDs
    Duration : 1 h 31 min
    Bit rate : 17.9 kb/s
    Count of elements : 1448
    Stream size : 11.7 MiB (0%)
    Language : Thai
    Default : Yes
    Forced : Yes





    Download:cornfile
    http://cornfile.com/xfkf269a4gos
    Download:filecondo
    http://www.filecondo.com/dl.php?f=3a76a91LTLRx

  2. The Following 2 Users Say Thank You to Duckload.us For This Useful Post:

    jackjangri (06-19-2021), noi54 (06-18-2021)

  3. #2
    Senior Member
    สมัครเมื่อ
    Jun 2011
    โพสต์
    262
    Thanks
    415
    Thanked 40 Times in 29 Posts
    thank you...

+ ตอบกลับกระทู้

ข้อมูลกระทู้

Users Browsing this Thread

ในขณะนี้มี 1 ท่านดูกระทู้อยู่. (0 สมาชิกและ 1 ผู้เยี่ยมชม)

     

กฎการโพสต์ข้อความ

  • ท่าน ไม่สามารถ ตั้งกระทู้ใหม่ได้
  • ท่าน ไม่สามารถ ตอบกระทู้ได้
  • ท่าน ไม่สามารถ แนบไฟล์ได้
  • ท่าน ไม่สามารถ แก้ไขข้อความโพสต์ได้
  • BB code สถานะ เปิด
  • Smilies สถานะ เปิด
  • [IMG] สถานะ เปิด
  • HTML สถานะ ปิด